Subcategories

Maria João Pires - The Complete Erato Recordings [17CDs] (2014)

Posted By: ArlegZ
Maria João Pires - The Complete Erato Recordings [17CDs] (2014)

Maria João Pires - The Complete Erato Recordings: Bach, Mozart, Beethoven, Schubert, Chopin, Schumann [17CDs] (2014)
EAC | FLAC | Image (Cue & Log) ~ 3,79 Gb | Total time: 17:07:57 | Scans included
Classical | Label: Erato| # 2564631065 | Recorded: 1972-1987

With her refined, honest artistry, the Portuguese pianist Maria João Pires - who turns 70 in July 2014 - is one of the musicians who defined the Erato label in the 1970s and 1980s. This 17-CD box presents all the recordings she made between 1972 and 1987. Reflecting the consistent focus of her repertoire, this box set's emphasis is on Austro-German composers of the Classical and early-Romantic periods. Embracing solo works, piano duets, and concertos, this release contains works by Mozart, Schubert, Schumann, and Beethoven, as well as by Bach and Chopin.
Pires' partners on these classic Erato recordings include the Turkish pianist Hüseyin Sermet and the conductors Michel Corboz, Armin Jordan, Claudio Scimone and Theodor Guschlbauer. A number of items in the collection (which features the original LP/CD artwork on the individual CD slipcases) have never before been released on CD.

Contents:
CD 1: Bach: Keyboard Concertos, BWV1052, 1055 & 1056'
CD 2: Mozart: Piano Concertos Nos. 9 & 17 - Rondo, K.382
CD 3: Mozart: Piano Concertos Nos. 21 & 26 - Rondo, K.386
CD 4: Mozart: Piano Concertos Nos. 23, 13 & 14
CD 5: Mozart: Piano Concertos Nos. 19 & 12 - Rondo, K.511
CD 6: Mozart: Piano Concertos Nos. 20 & 27
CD 7: Mozart: Piano Concertos Nos. 8 & 27
CD 8: Mozart: Piano Sonatas Nos. 6 & 14 - Fantasia in C minor K. 475
CD 9: Beethoven: Piano Sonatas Nos. 23, 17 & 14
CD 10: Beethoven: Piano Sonatas Nos. 31, 8 & 30
CD 11: Schubert: Piano Sonata, D.960 - Impromptus D.899 Nos. 3 & 4
CD 12: Schubert: Piano Sonata, D.894 - Impromptus, D.899 Nos. 1 & 2
CD 13: Schubert: Fantasy, D.940 - Marches militaires, D.733 - Rondos, D.608 & 951 - Deutscher mit zwei trios und zwei Ländler, D. 618 Nos. 1 & 2
CD 14: Chopin: 24 Preludes, Op. 28 - Prelude, Op.45 -Krakowiak, Op. 14
CD 15: Chopin: Piano Concertos Nos. 1 & 2
CD 16: Chopin: Waltzes
CD 17: Schumann: Kinderszenen - Waldszenen - Bunte Blätter


Johann Sebastian Bach
CD01
[1]-[3] Keyboard Concerto in D minor, BWV 1052
[4]-[6] Keyboard Concerto in A major, BWV 1055
[7]-[9] Keyboard Concerto in F minor, BWV 1056
Maria João Pires piano
Orquestra Gulbenkian
Michel Corboz
Recorded in 1974

Wolfgang Amadeus Mozart
CD02
[1]-[3] Piano Concerto No.9 in E flat major, K271 'Jeunehomme'
[4]-[6] Piano Concerto No.17 in G major, K453
[7] Rondo in D major, K382
Maria João Pires piano
Orquestra Gulbenkian
Theodor Guschlbauer
Recorded in 1972, 1973
CD03
[1]-[3] Piano Concerto No.21 in C major, K467
[4]-[6] Piano Concerto No.26 in D major, K537 'Coronation'
[7] Rondo in A major, K386
Maria João Pires piano
Orquestra Gulbenkian
Theodor Guschlbauer
Recorded in 1973, 1974
CD04
[1]-[3] Piano Concerto No.23 in A major, K488
[4]-[6] Piano Concerto No.13 in C major, K415
[7]-[9] Piano Concerto No.14 in E flat major, K449
Maria João Pires piano
Orquestra Gulbenkian
Theodor Guschlbauer
Recorded in 1973, 1974
CD05
[1]-[3] Piano Concerto No.19 in F major, K459
[4]-[6] Piano Concerto No.12 in A major, K414
[7] Rondo in A minor, K511
Maria João Pires piano
Orchestre de Chambre de Lausanne
Armin Jordan
Recorded in 1973, 1976
CD06
[1]-[3] Piano Concerto No.20 in D minor, K466
[4]-[6] Piano Concerto No.27 in B flat major, K595
Maria João Pires piano
Orchestre de Chambre de Lausanne
Armin Jordan
Recorded in 1977
CD07
[1]-[3] Piano Concerto No.8 in C major, K246 ' Lützow'
[4]-[6] Piano Concerto No.27 in B flat major, K595
Maria João Pires piano
I Solisti Veneti
Claudio Scimone
Recorded in 1975
CD08
[1]-[3] Piano Sonata No.6 in D major, K284
[4] Fantasia in C minor, K475
[5]-[7] Piano Sonata No.14 in C minor, K457
Maria João Pires piano
Recorded in 1984

Ludwig van Beethoven
CD09
[1]-[3] Piano Sonata No.23 in F minor, Op.57 'Appassionata'
[4]-[6] Piano Sonata No.17 in D minor, Op.31 No.2 'Tempest'
[7]-[9] Piano Sonata No.14 in C sharp minor, Op.27 No.2 'Moonlight'
Maria João Pires piano
Recorded in 1975
CD10
[1]-[3] Piano Sonata No.31 in A flat major, Op.110
[4]-[6] Piano Sonata No.8 in C minor, Op.13 'Pathetique'
[7]-[9] Piano Sonata No.30 in E major, Op.109
Maria João Pires piano
Recorded in 1975

Franz Schubert
CD11
[1]-[4] Piano Sonata No.21 in B flat major, D960
[5]-[6] 4 Impromptus, D899 - No.3 & No.4
Maria João Pires piano
Recorded in 1985
CD12
[1]-[4] Piano Sonata No.18 in G major, D894
[5]-[6] 4 Impromptus, D899 - No.1 & No.2
Maria João Pires piano
Recorded in 1987
CD13
[1]-[3] Fantasy in F minor, D940
[4]-[6] 3 Marches Militaires, D733
[7] Rondo in D major, D608
[8] Rondo in A major, D951
[9] Deutscher mit zwei Trios und zwei Ländler, D618
Maria João Pires piano
Hüseyin Sernet piano
Recorded in 1987

Frédéric Chopin
CD14
[1]-[24] 24 Prélude, Op.28
[25] Prélude in C sharp minor, Op.45
[26] Krakowiak in F major, Op.14
Maria João Pires piano
Recorded in 1975, 1977
CD15
[1]-[3] Piano Concerto No.1 in E minor, Op.11
[4]-[6] Piano Concerto No.2 in F minor, Op.21
Maria João Pires piano
Orchestre National de l'Opéra de Monte-Carlo
Armin Jordan
Recorded in 1977
CD16
[1]-[14] Complete Waltzes
Maria João Pires piano
Recorded in 1984

Robert Schumann
[1]-[13] Kinderszenen, Op.15
[14]-[22] Waldszenen, Op.82
[23]-[31] Bunte Blätter, Op.99 (Nos.1-8 &10)
Maria João Pires piano
Recorded in 1984



Exact Audio Copy V1.3 from 2. September 2016

EAC extraction logfile from 14. March 2018, 22:07

Maria João Pires, Orquestra Gulbenkian, Michel Corboz / Pires - The Complete Erato Recordings - CD01 - Bach

Used drive : TEAC DVD-ROM DV-28PU Adapter: 1 ID: 1

Read mode : Secure
Utilize accurate stream : Yes
Defeat audio cache : Yes
Make use of C2 pointers : No

Read offset correction : 102
Overread into Lead-In and Lead-Out : No
Fill up missing offset samples with silence : Yes
Delete leading and trailing silent blocks : No
Null samples used in CRC calculations : Yes
Used interface : Native Win32 interface for Win NT & 2000

Used output format : User Defined Encoder
Selected bitrate : 128 kBit/s
Quality : High
Add ID3 tag : No
Command line compressor : C:\Program Files (x86)\Exact Audio Copy\Flac\flac.exe
Additional command line options : -V -8 -T "Date=%year%" -T "Genre=%genre%" %source%


TOC of the extracted CD

Track | Start | Length | Start sector | End sector
––––––––––––––––––––––––––––-
1 | 0:00.00 | 8:05.44 | 0 | 36418
2 | 8:05.44 | 9:12.08 | 36419 | 77826
3 | 17:17.52 | 8:17.49 | 77827 | 115150
4 | 25:35.26 | 4:47.06 | 115151 | 136681
5 | 30:22.32 | 5:07.26 | 136682 | 159732
6 | 35:29.58 | 4:36.35 | 159733 | 180467
7 | 40:06.18 | 3:49.53 | 180468 | 197695
8 | 43:55.71 | 3:13.03 | 197696 | 212173
9 | 47:08.74 | 3:42.28 | 212174 | 228851


Range status and errors

Selected range

Filename C:\temp\Maria Joao Pires - The Complete Erato Recordings\CD01\Pires - The Complete Erato Recordings - CD01.wav

Peak level 76.7 %
Extraction speed 4.0 X
Range quality 100.0 %
Test CRC 24F5B8F5
Copy CRC 24F5B8F5
Copy OK

No errors occurred


AccurateRip summary

Track 1 accurately ripped (confidence 17) [190FAADD] (AR v2)
Track 2 accurately ripped (confidence 18) [B81647FE] (AR v2)
Track 3 accurately ripped (confidence 18) [ABBA2F76] (AR v2)
Track 4 accurately ripped (confidence 18) [C4902442] (AR v2)
Track 5 accurately ripped (confidence 18) [7B94953D] (AR v2)
Track 6 accurately ripped (confidence 18) [4968F35E] (AR v2)
Track 7 accurately ripped (confidence 18) [25B3A177] (AR v2)
Track 8 accurately ripped (confidence 20) [0080617F] (AR v2)
Track 9 accurately ripped (confidence 19) [3F3ECA7E] (AR v2)

All tracks accurately ripped

End of status report

==== Log checksum D72FA124BEFABA12D5A3EF61CA572704FDFB8893C35C6AB5A983D6628171CD1D ====


Exact Audio Copy V1.3 from 2. September 2016

EAC extraction logfile from 15. March 2018, 22:29

Maria João Pires, Orquestra Gulbenkian, Theodor Guschlbauer / Pires - The Complete Erato Recordings - CD02 - Mozart

Used drive : TEAC DVD-ROM DV-28PU Adapter: 1 ID: 1

Read mode : Secure
Utilize accurate stream : Yes
Defeat audio cache : Yes
Make use of C2 pointers : No

Read offset correction : 102
Overread into Lead-In and Lead-Out : No
Fill up missing offset samples with silence : Yes
Delete leading and trailing silent blocks : No
Null samples used in CRC calculations : Yes
Used interface : Native Win32 interface for Win NT & 2000

Used output format : User Defined Encoder
Selected bitrate : 128 kBit/s
Quality : High
Add ID3 tag : No
Command line compressor : C:\Program Files (x86)\Exact Audio Copy\Flac\flac.exe
Additional command line options : -V -8 -T "Date=%year%" -T "Genre=%genre%" %source%


TOC of the extracted CD

Track | Start | Length | Start sector | End sector
––––––––––––––––––––––––––––-
1 | 0:00.00 | 10:29.10 | 0 | 47184
2 | 10:29.10 | 12:26.45 | 47185 | 103179
3 | 22:55.55 | 10:40.20 | 103180 | 151199
4 | 33:36.00 | 11:56.58 | 151200 | 204957
5 | 45:32.58 | 11:07.67 | 204958 | 255049
6 | 56:40.50 | 7:38.33 | 255050 | 289432
7 | 64:19.08 | 10:15.12 | 289433 | 335569


Range status and errors

Selected range

Filename C:\temp\Maria Joao Pires - The Complete Erato Recordings\CD02\Pires - The Complete Erato Recordings - CD02.wav

Peak level 100.0 %
Extraction speed 4.2 X
Range quality 100.0 %
Test CRC 5A7BCF50
Copy CRC 5A7BCF50
Copy OK

No errors occurred


AccurateRip summary

Track 1 accurately ripped (confidence 20) [FB65BCFD] (AR v2)
Track 2 accurately ripped (confidence 19) [A1B14C0E] (AR v2)
Track 3 accurately ripped (confidence 20) [09382215] (AR v2)
Track 4 accurately ripped (confidence 21) [283FB1A3] (AR v2)
Track 5 accurately ripped (confidence 20) [D39F341F] (AR v2)
Track 6 accurately ripped (confidence 21) [ADE1A5EF] (AR v2)
Track 7 accurately ripped (confidence 20) [A04C1084] (AR v2)

All tracks accurately ripped

End of status report

==== Log checksum BFD53F7FDD8A2C582AE616E8D7CC76F8348AE6F431DA14A1459EB2744B3C4B94 ====


Exact Audio Copy V1.3 from 2. September 2016

EAC extraction logfile from 15. March 2018, 23:08

Maria João Pires, Orquestra Gulbenkian, Theodor Guschlbauer / Pires - The Complete Erato Recordings - CD03 - Mozart

Used drive : TEAC DVD-ROM DV-28PU Adapter: 1 ID: 1

Read mode : Secure
Utilize accurate stream : Yes
Defeat audio cache : Yes
Make use of C2 pointers : No

Read offset correction : 102
Overread into Lead-In and Lead-Out : No
Fill up missing offset samples with silence : Yes
Delete leading and trailing silent blocks : No
Null samples used in CRC calculations : Yes
Used interface : Native Win32 interface for Win NT & 2000

Used output format : User Defined Encoder
Selected bitrate : 128 kBit/s
Quality : High
Add ID3 tag : No
Command line compressor : C:\Program Files (x86)\Exact Audio Copy\Flac\flac.exe
Additional command line options : -V -8 -T "Date=%year%" -T "Genre=%genre%" %source%


TOC of the extracted CD

Track | Start | Length | Start sector | End sector
––––––––––––––––––––––––––––-
1 | 0:00.00 | 13:35.55 | 0 | 61179
2 | 13:35.55 | 6:44.00 | 61180 | 91479
3 | 20:19.55 | 6:43.62 | 91480 | 121766
4 | 27:03.42 | 13:45.33 | 121767 | 183674
5 | 40:49.00 | 6:22.70 | 183675 | 212394
6 | 47:11.70 | 10:34.25 | 212395 | 259969
7 | 57:46.20 | 8:34.50 | 259970 | 298569


Range status and errors

Selected range

Filename C:\temp\Maria Joao Pires - The Complete Erato Recordings\CD03\Pires - The Complete Erato Recordings - CD03.wav

Peak level 97.4 %
Extraction speed 4.2 X
Range quality 100.0 %
Test CRC 2AA797A9
Copy CRC 2AA797A9
Copy OK

No errors occurred


AccurateRip summary

Track 1 accurately ripped (confidence 20) [0C8C214E] (AR v2)
Track 2 accurately ripped (confidence 20) [A8CB4A55] (AR v2)
Track 3 accurately ripped (confidence 20) [C783D650] (AR v2)
Track 4 accurately ripped (confidence 20) [649AFF5D] (AR v2)
Track 5 accurately ripped (confidence 20) [80C3A27B] (AR v2)
Track 6 accurately ripped (confidence 20) [DDF290BF] (AR v2)
Track 7 accurately ripped (confidence 20) [42AF7150] (AR v2)

All tracks accurately ripped

End of status report

==== Log checksum 625B20B925C0BC465CB7BFE31272E81C8CAA11F46DBD0477A9BC923EAB91D3D9 ====


Exact Audio Copy V1.3 from 2. September 2016

EAC extraction logfile from 15. March 2018, 23:57

Maria João Pires, Orquestra Gulbenkian, Theodor Guschlbauer / Pires - The Complete Erato Recordings - CD04 - Mozart

Used drive : TEAC DVD-ROM DV-28PU Adapter: 1 ID: 1

Read mode : Secure
Utilize accurate stream : Yes
Defeat audio cache : Yes
Make use of C2 pointers : No

Read offset correction : 102
Overread into Lead-In and Lead-Out : No
Fill up missing offset samples with silence : Yes
Delete leading and trailing silent blocks : No
Null samples used in CRC calculations : Yes
Used interface : Native Win32 interface for Win NT & 2000

Used output format : User Defined Encoder
Selected bitrate : 128 kBit/s
Quality : High
Add ID3 tag : No
Command line compressor : C:\Program Files (x86)\Exact Audio Copy\Flac\flac.exe
Additional command line options : -V -8 -T "Date=%year%" -T "Genre=%genre%" %source%


TOC of the extracted CD

Track | Start | Length | Start sector | End sector
––––––––––––––––––––––––––––-
1 | 0:00.00 | 11:20.25 | 0 | 51024
2 | 11:20.25 | 7:20.63 | 51025 | 84087
3 | 18:41.13 | 8:07.07 | 84088 | 120619
4 | 26:48.20 | 10:34.40 | 120620 | 168209
5 | 37:22.60 | 7:05.30 | 168210 | 200114
6 | 44:28.15 | 8:20.60 | 200115 | 237674
7 | 52:49.00 | 9:03.18 | 237675 | 278417
8 | 61:52.18 | 7:55.50 | 278418 | 314092
9 | 69:47.68 | 6:00.39 | 314093 | 341131


Range status and errors

Selected range

Filename C:\temp\Maria Joao Pires - The Complete Erato Recordings\CD04\Pires - The Complete Erato Recordings - CD04.wav

Peak level 96.3 %
Extraction speed 4.2 X
Range quality 99.9 %
Test CRC 9BE5E176
Copy CRC 9BE5E176
Copy OK

No errors occurred


AccurateRip summary

Track 1 accurately ripped (confidence 20) [A90B87D7] (AR v2)
Track 2 accurately ripped (confidence 20) [A3175208] (AR v2)
Track 3 accurately ripped (confidence 20) [51B96856] (AR v2)
Track 4 accurately ripped (confidence 20) [543B8E47] (AR v2)
Track 5 accurately ripped (confidence 20) [2C822C67] (AR v2)
Track 6 accurately ripped (confidence 20) [CFB07A3B] (AR v2)
Track 7 accurately ripped (confidence 20) [5219009B] (AR v2)
Track 8 accurately ripped (confidence 20) [84C8947A] (AR v2)
Track 9 accurately ripped (confidence 20) [80E186A9] (AR v2)

All tracks accurately ripped

End of status report

==== Log checksum 6AD85295A228E73CFEDAFA72336876B4795C59B904C9FABFB15E3B6DD792C237 ====


Exact Audio Copy V1.3 from 2. September 2016

EAC extraction logfile from 16. March 2018, 0:39

Maria João Pires, Orchestre de Chambre de Lausanne, Armin Jordan / Pires - The Complete Erato Recordings - CD05 - Mozart

Used drive : TEAC DVD-ROM DV-28PU Adapter: 1 ID: 1

Read mode : Secure
Utilize accurate stream : Yes
Defeat audio cache : Yes
Make use of C2 pointers : No

Read offset correction : 102
Overread into Lead-In and Lead-Out : No
Fill up missing offset samples with silence : Yes
Delete leading and trailing silent blocks : No
Null samples used in CRC calculations : Yes
Used interface : Native Win32 interface for Win NT & 2000

Used output format : User Defined Encoder
Selected bitrate : 128 kBit/s
Quality : High
Add ID3 tag : No
Command line compressor : C:\Program Files (x86)\Exact Audio Copy\Flac\flac.exe
Additional command line options : -V -8 -T "Date=%year%" -T "Genre=%genre%" %source%


TOC of the extracted CD

Track | Start | Length | Start sector | End sector
––––––––––––––––––––––––––––-
1 | 0:00.00 | 12:53.25 | 0 | 57999
2 | 12:53.25 | 8:42.67 | 58000 | 97216
3 | 21:36.17 | 8:19.70 | 97217 | 134711
4 | 29:56.12 | 10:38.08 | 134712 | 182569
5 | 40:34.20 | 8:27.47 | 182570 | 220641
6 | 49:01.67 | 6:59.70 | 220642 | 252136
7 | 56:01.62 | 9:16.31 | 252137 | 293867


Range status and errors

Selected range

Filename C:\temp\Maria Joao Pires - The Complete Erato Recordings\CD05\Pires - The Complete Erato Recordings - CD05.wav

Peak level 95.3 %
Extraction speed 3.9 X
Range quality 99.9 %
Test CRC 69501BF1
Copy CRC 69501BF1
Copy OK

No errors occurred


AccurateRip summary

Track 1 accurately ripped (confidence 19) [2F746976] (AR v2)
Track 2 accurately ripped (confidence 20) [2551BD09] (AR v2)
Track 3 accurately ripped (confidence 20) [D2F600D2] (AR v2)
Track 4 accurately ripped (confidence 20) [B332A0D7] (AR v2)
Track 5 accurately ripped (confidence 20) [358B6875] (AR v2)
Track 6 accurately ripped (confidence 20) [BE2F7216] (AR v2)
Track 7 accurately ripped (confidence 20) [624E98ED] (AR v2)

All tracks accurately ripped

End of status report

==== Log checksum 907E0554A8F36E253C7BFF1BCDD03274B043C03E30D31E9BED2BE623E6B90A3D ====


Exact Audio Copy V1.3 from 2. September 2016

EAC extraction logfile from 16. March 2018, 20:57

Maria João Pires, Orchestre de Chambre de Lausanne, Armin Jordan / Pires - The Complete Erato Recordings - CD06 - Mozart

Used drive : TEAC DVD-ROM DV-28PU Adapter: 1 ID: 1

Read mode : Secure
Utilize accurate stream : Yes
Defeat audio cache : Yes
Make use of C2 pointers : No

Read offset correction : 102
Overread into Lead-In and Lead-Out : No
Fill up missing offset samples with silence : Yes
Delete leading and trailing silent blocks : No
Null samples used in CRC calculations : Yes
Used interface : Native Win32 interface for Win NT & 2000

Used output format : User Defined Encoder
Selected bitrate : 128 kBit/s
Quality : High
Add ID3 tag : No
Command line compressor : C:\Program Files (x86)\Exact Audio Copy\Flac\flac.exe
Additional command line options : -V -8 -T "Date=%year%" -T "Genre=%genre%" %source%


TOC of the extracted CD

Track | Start | Length | Start sector | End sector
––––––––––––––––––––––––––––-
1 | 0:00.00 | 14:47.20 | 0 | 66544
2 | 14:47.20 | 9:39.25 | 66545 | 109994
3 | 24:26.45 | 8:13.10 | 109995 | 146979
4 | 32:39.55 | 14:01.20 | 146980 | 210074
5 | 46:41.00 | 8:05.18 | 210075 | 246467
6 | 54:46.18 | 9:18.34 | 246468 | 288351


Range status and errors

Selected range

Filename C:\temp\Maria Joao Pires - The Complete Erato Recordings\CD06\Pires - The Complete Erato Recordings - CD06.wav

Peak level 99.1 %
Extraction speed 4.0 X
Range quality 100.0 %
Test CRC FF3AF628
Copy CRC FF3AF628
Copy OK

No errors occurred


AccurateRip summary

Track 1 accurately ripped (confidence 19) [93CE5F15] (AR v2)
Track 2 accurately ripped (confidence 20) [24E570B7] (AR v2)
Track 3 accurately ripped (confidence 20) [6F3B1E3E] (AR v2)
Track 4 accurately ripped (confidence 20) [ECA7DF22] (AR v2)
Track 5 accurately ripped (confidence 20) [E4AE154C] (AR v2)
Track 6 accurately ripped (confidence 19) [73499B4F] (AR v2)

All tracks accurately ripped

End of status report

==== Log checksum 7C3E60C97087ACD30010CB0FA345B3E43B3F7397BC8651A81707F3EF6185884D ====


Exact Audio Copy V1.3 from 2. September 2016

EAC extraction logfile from 16. March 2018, 21:31

Maria João Pires, I Solisti Veneti, Claudio Scimone / Pires - The Complete Erato Recordings - CD07 - Mozart

Used drive : TEAC DVD-ROM DV-28PU Adapter: 1 ID: 1

Read mode : Secure
Utilize accurate stream : Yes
Defeat audio cache : Yes
Make use of C2 pointers : No

Read offset correction : 102
Overread into Lead-In and Lead-Out : No
Fill up missing offset samples with silence : Yes
Delete leading and trailing silent blocks : No
Null samples used in CRC calculations : Yes
Used interface : Native Win32 interface for Win NT & 2000

Used output format : User Defined Encoder
Selected bitrate : 128 kBit/s
Quality : High
Add ID3 tag : No
Command line compressor : C:\Program Files (x86)\Exact Audio Copy\Flac\flac.exe
Additional command line options : -V -8 -T "Date=%year%" -T "Genre=%genre%" %source%


TOC of the extracted CD

Track | Start | Length | Start sector | End sector
––––––––––––––––––––––––––––-
1 | 0:00.00 | 7:49.11 | 0 | 35185
2 | 7:49.11 | 8:17.40 | 35186 | 72500
3 | 16:06.51 | 7:15.48 | 72501 | 105173
4 | 23:22.24 | 14:21.69 | 105174 | 169817
5 | 37:44.18 | 8:00.49 | 169818 | 205866
6 | 45:44.67 | 9:10.15 | 205867 | 247131


Range status and errors

Selected range

Filename C:\temp\Maria Joao Pires - The Complete Erato Recordings\CD07\Pires - The Complete Erato Recordings - CD07.wav

Peak level 95.4 %
Extraction speed 4.1 X
Range quality 99.9 %
Test CRC C04F0E0C
Copy CRC C04F0E0C
Copy OK

No errors occurred


AccurateRip summary

Track 1 cannot be verified as accurate (confidence 19) [CC036588], AccurateRip returned [0389E644] (AR v2)
Track 2 cannot be verified as accurate (confidence 19) [D50D3742], AccurateRip returned [9BD31F66] (AR v2)
Track 3 cannot be verified as accurate (confidence 19) [1945A069], AccurateRip returned [4ACE9214] (AR v2)
Track 4 cannot be verified as accurate (confidence 18) [CA7B07F8], AccurateRip returned [38BD327A] (AR v2)
Track 5 cannot be verified as accurate (confidence 18) [882BE1A9], AccurateRip returned [EC186CB1] (AR v2)
Track 6 cannot be verified as accurate (confidence 17) [D1EED78B], AccurateRip returned [3B567177] (AR v2)

No tracks could be verified as accurate
You may have a different pressing from the one(s) in the database

End of status report

==== Log checksum 00EFF06AEF1113F1C0791BD67FFABA5CC19C08D5DE2DF73B89DF739FB22FC121 ====


Exact Audio Copy V1.3 from 2. September 2016

EAC extraction logfile from 16. March 2018, 22:17

Maria João Pires / Pires - The Complete Erato Recordings - CD08 - Mozart

Used drive : TEAC DVD-ROM DV-28PU Adapter: 1 ID: 1

Read mode : Secure
Utilize accurate stream : Yes
Defeat audio cache : Yes
Make use of C2 pointers : No

Read offset correction : 102
Overread into Lead-In and Lead-Out : No
Fill up missing offset samples with silence : Yes
Delete leading and trailing silent blocks : No
Null samples used in CRC calculations : Yes
Used interface : Native Win32 interface for Win NT & 2000

Used output format : User Defined Encoder
Selected bitrate : 128 kBit/s
Quality : High
Add ID3 tag : No
Command line compressor : C:\Program Files (x86)\Exact Audio Copy\Flac\flac.exe
Additional command line options : -V -8 -T "Date=%year%" -T "Genre=%genre%" %source%


TOC of the extracted CD

Track | Start | Length | Start sector | End sector
––––––––––––––––––––––––––––-
1 | 0:00.00 | 7:25.40 | 0 | 33414
2 | 7:25.40 | 4:55.60 | 33415 | 55599
3 | 12:21.25 | 17:41.45 | 55600 | 135219
4 | 30:02.70 | 12:35.17 | 135220 | 191861
5 | 42:38.12 | 6:30.30 | 191862 | 221141
6 | 49:08.42 | 7:28.65 | 221142 | 254806
7 | 56:37.32 | 4:51.23 | 254807 | 276654


Range status and errors

Selected range

Filename C:\temp\Maria Joao Pires - The Complete Erato Recordings\CD08\Pires - The Complete Erato Recordings - CD08.wav

Peak level 91.2 %
Extraction speed 4.0 X
Range quality 100.0 %
Test CRC 8B029592
Copy CRC 8B029592
Copy OK

No errors occurred


AccurateRip summary

Track 1 accurately ripped (confidence 18) [976578C8] (AR v2)
Track 2 accurately ripped (confidence 19) [C62BB67E] (AR v2)
Track 3 accurately ripped (confidence 18) [943970AF] (AR v2)
Track 4 accurately ripped (confidence 19) [59628DE7] (AR v2)
Track 5 accurately ripped (confidence 21) [4B7000E3] (AR v2)
Track 6 accurately ripped (confidence 19) [5F530DB6] (AR v2)
Track 7 accurately ripped (confidence 18) [00899B4F] (AR v2)

All tracks accurately ripped

End of status report

==== Log checksum 0E767DEAA42346A17EA4A359382A6749DFB4D58A2C50E67AA24694F016E6AEE8 ====


Exact Audio Copy V1.3 from 2. September 2016

EAC extraction logfile from 16. March 2018, 22:55

Maria João Pires / Pires - The Complete Erato Recordings - CD09 - Beethoven

Used drive : TEAC DVD-ROM DV-28PU Adapter: 1 ID: 1

Read mode : Secure
Utilize accurate stream : Yes
Defeat audio cache : Yes
Make use of C2 pointers : No

Read offset correction : 102
Overread into Lead-In and Lead-Out : No
Fill up missing offset samples with silence : Yes
Delete leading and trailing silent blocks : No
Null samples used in CRC calculations : Yes
Used interface : Native Win32 interface for Win NT & 2000

Used output format : User Defined Encoder
Selected bitrate : 128 kBit/s
Quality : High
Add ID3 tag : No
Command line compressor : C:\Program Files (x86)\Exact Audio Copy\Flac\flac.exe
Additional command line options : -V -8 -T "Date=%year%" -T "Genre=%genre%" %source%


TOC of the extracted CD

Track | Start | Length | Start sector | End sector
––––––––––––––––––––––––––––-
1 | 0:00.00 | 9:27.60 | 0 | 42584
2 | 9:27.60 | 5:51.28 | 42585 | 68937
3 | 15:19.13 | 5:24.63 | 68938 | 93300
4 | 20:44.01 | 8:46.59 | 93301 | 132809
5 | 29:30.60 | 7:21.25 | 132810 | 165909
6 | 36:52.10 | 6:29.05 | 165910 | 195089
7 | 43:21.15 | 5:28.50 | 195090 | 219739
8 | 48:49.65 | 1:59.33 | 219740 | 228697
9 | 50:49.23 | 5:52.62 | 228698 | 255159


Range status and errors

Selected range

Filename C:\temp\Maria Joao Pires - The Complete Erato Recordings\CD09\Pires - The Complete Erato Recordings - CD09.wav

Peak level 96.4 %
Extraction speed 3.9 X
Range quality 100.0 %
Test CRC 28B6AE52
Copy CRC 28B6AE52
Copy OK

No errors occurred


AccurateRip summary

Track 1 accurately ripped (confidence 19) [6654F1DA] (AR v2)
Track 2 accurately ripped (confidence 19) [CFEFDC44] (AR v2)
Track 3 accurately ripped (confidence 19) [CF7C3BE4] (AR v2)
Track 4 accurately ripped (confidence 19) [F911EC60] (AR v2)
Track 5 accurately ripped (confidence 19) [7F61E67B] (AR v2)
Track 6 accurately ripped (confidence 19) [7696DF37] (AR v2)
Track 7 accurately ripped (confidence 19) [01668C2F] (AR v2)
Track 8 accurately ripped (confidence 19) [0B83D3A5] (AR v2)
Track 9 accurately ripped (confidence 18) [8164649B] (AR v2)

All tracks accurately ripped

End of status report

==== Log checksum B7701E8699556338A69B96EF47BEA10A74A24AC1AE20EDED3380DEFA974B6647 ====


Exact Audio Copy V1.3 from 2. September 2016

EAC extraction logfile from 16. March 2018, 23:48

Maria João Pires / Pires - The Complete Erato Recordings - CD10 - Beethoven

Used drive : TEAC DVD-ROM DV-28PU Adapter: 1 ID: 1

Read mode : Secure
Utilize accurate stream : Yes
Defeat audio cache : Yes
Make use of C2 pointers : No

Read offset correction : 102
Overread into Lead-In and Lead-Out : No
Fill up missing offset samples with silence : Yes
Delete leading and trailing silent blocks : No
Null samples used in CRC calculations : Yes
Used interface : Native Win32 interface for Win NT & 2000

Used output format : User Defined Encoder
Selected bitrate : 128 kBit/s
Quality : High
Add ID3 tag : No
Command line compressor : C:\Program Files (x86)\Exact Audio Copy\Flac\flac.exe
Additional command line options : -V -8 -T "Date=%year%" -T "Genre=%genre%" %source%


TOC of the extracted CD

Track | Start | Length | Start sector | End sector
––––––––––––––––––––––––––––-
1 | 0:00.00 | 5:52.52 | 0 | 26451
2 | 5:52.52 | 2:03.20 | 26452 | 35696
3 | 7:55.72 | 11:50.14 | 35697 | 88960
4 | 19:46.11 | 9:09.51 | 88961 | 130186
5 | 28:55.62 | 4:21.00 | 130187 | 149761
6 | 33:16.62 | 4:36.62 | 149762 | 170523
7 | 37:53.49 | 3:59.56 | 170524 | 188504
8 | 41:53.30 | 2:16.42 | 188505 | 198746
9 | 44:09.72 | 11:52.28 | 198747 | 252174


Range status and errors

Selected range

Filename C:\temp\Maria Joao Pires - The Complete Erato Recordings\CD10\Pires - The Complete Erato Recordings - CD10.wav

Peak level 98.3 %
Extraction speed 3.9 X
Range quality 100.0 %
Test CRC 6508C7B4
Copy CRC 6508C7B4
Copy OK

No errors occurred


AccurateRip summary

Track 1 accurately ripped (confidence 20) [AE5D4E24] (AR v2)
Track 2 accurately ripped (confidence 20) [D5A5C7CB] (AR v2)
Track 3 accurately ripped (confidence 20) [7160B345] (AR v2)
Track 4 accurately ripped (confidence 19) [4003C083] (AR v2)
Track 5 accurately ripped (confidence 19) [3313D9BC] (AR v2)
Track 6 accurately ripped (confidence 19) [97083854] (AR v2)
Track 7 accurately ripped (confidence 20) [40B2D617] (AR v2)
Track 8 accurately ripped (confidence 20) [BDE5B711] (AR v2)
Track 9 accurately ripped (confidence 19) [ECBDCE7E] (AR v2)

All tracks accurately ripped

End of status report

==== Log checksum 85A6B80A10C01E689347711355947F139FD4519C20C4289925A014D6B426B9F0 ====


Maria João Pires - The Complete Erato Recordings [17CDs] (2014)

Thanks to the original releaser