Subcategories
Tags
Language
Tags

Maria Pia De Vito, Burnogualà Large Vocal Ensemble - Moresche e altre invenzioni (2018) {Parco Della Musica}

Posted By: tiburon
Maria Pia De Vito, Burnogualà Large Vocal Ensemble - Moresche e altre invenzioni (2018) {Parco Della Musica}

Maria Pia De Vito, Burnogualà Large Vocal Ensemble - Moresche e altre invenzioni (2018) {Parco Della Musica}
EAC 1.3 | FLAC tracks level 8 | Cue+Log+M3U | Full Scans 300dpi | 443MB + 5% Recovery
MP3 CBR 320 Kbps | 120MB + 5% Recovery
Genre: Jazz, Vocal Jazz, Classical

Oltre ad essere un’interprete di livello, la cantante Maria Pia De Vito ha al suo attivo progetti sempre interessanti e originali. Ricordiamo Il Pergolese, omaggio jazz alla musica del compositore settecentesco, e il recente Coraçao dedicato alla musica brasiliana con i testi tradotti in napoletano (ne abbiamo parlato in occasione di Umbria Jazz Winter 2017/18). Stavolta la musicista recupera la forma della moresca, antica danza di origine araba con i testi generalmente di carattere grottesco. Nella Napoli, città di origine della solista, questa forma fu molto popolare: uno degli artefici della sua riscoperta in tempi moderni è stato Roberto De Simone che l’ha inserita nella sua Gatta Cenerentola, ma al tempo stesso vari gruppi vocali (King’s Singers e Orlando Consort) la propongono nel loro repertorio.
E a proposito di voce, De Vito collabora in questo disco con il Burnoguala Large Vocal Ensemble con il recupero di musicisti del passato come Adrian Willaert e soprattutto Orlando Di Lasso, protagonista assoluto nel XVI secolo.
Il jazz e la musica world sono protagonisti alla pari della musica antica con ospiti quali Rita Marcotulli, Ralph Towner, Ousmane Coulibaly per inserti (le altre invenzioni) spesso in relazione con la moresca presentata nella traccia immediatamente precedente. Alcuni brani ci riportano alla citata Gatta Cenerentola come O Lucia, Miau Miau (che venne trasformata nel brano chiamato semplicemente Moresca) e la parte iniziale di Vecchie Letrose con la citazione del Secondo coro delle lavandaie. Tra le altre invenzioni citiamo Lafia Calia, Tambilili, Dindirindina e il tradizionale Voccuccia de no pierzeco posto nel finale e di grande fascino. Inoltre le composizioni di Orlando di Lasso parlano da sole e fanno parte della storie della musica.
Un disco che si candida a essere uno dei migliori del 2018.
Track List
1. Alla Lafia Calia
2. Lafia Calia
3. Hai, Lucia
4. Tambilli
5. Catalina
6. Apra finestra
7. Chicchilichì
8. Lucia, celu
9. Dindirindina
10. Giorgia namolada
11. Canta Giorgia canta
12. Tutto lo dì
13. O Lucia, miau miau
14. Vecchie letrose
15. Voccuccia de no pierzeco

musicians
Maria Pia De Vito vocals
Lorenzo Apicella piano
Dario Piccioni double bass
Arnaldo Vacca percussions
Ousmane Coulibaly kora, balafon
Alessandro D'Alessandro accordion
Giuseppe Spedino Moffa italian bagpipe
Rita Marcotulli piano
Ralph Towner guitar
Massimo Carrano percussions
Burnogualà Large Vocal Ensemble conductet by Maria Pia De Vito

Produced by Maria Pia De Vito


Exact Audio Copy V1.3 from 2. September 2016

EAC extraction logfile from 27. August 2018, 18:07

Maria Pia De Vito & Burnoguala' Large Vocal Ensemble / Moresche e Altre Invenzioni

Used drive : HL-DT-STDVD-ROM GDR8161B Adapter: 1 ID: 0

Read mode : Secure
Utilize accurate stream : Yes
Defeat audio cache : Yes
Make use of C2 pointers : No

Read offset correction : 102
Overread into Lead-In and Lead-Out : No
Fill up missing offset samples with silence : Yes
Delete leading and trailing silent blocks : No
Null samples used in CRC calculations : Yes
Used interface : Native Win32 interface for Win NT & 2000
Gap handling : Appended to previous track

Used output format : User Defined Encoder
Selected bitrate : 768 kBit/s
Quality : High
Add ID3 tag : No
Command line compressor : C:\Program Files (x86)\Exact Audio Copy\FLAC\FLAC.EXE
Additional command line options : -8 -V -T "ARTIST=%artist%" -T "TITLE=%title%" -T "ALBUM=%albumtitle%" -T "DATE=%year%" -T "TRACKNUMBER=%tracknr%" -T "TOTALTRACKS=%numtracks%" -T "GENRE=%genre%" -T "ALBUMARTIST=%albumartist%" -T "ALBUM ARTIST=%albumartist%" -T "COMMENT=EAC Secure Mode, Test & Copy, AccurateRip, FLAC -8" %source%


TOC of the extracted CD

Track | Start | Length | Start sector | End sector
––––––––––––––––––––––––––––-
1 | 0:00.00 | 8:35.27 | 0 | 38651
2 | 8:35.27 | 2:11.42 | 38652 | 48518
3 | 10:46.69 | 2:57.21 | 48519 | 61814
4 | 13:44.15 | 1:44.73 | 61815 | 69687
5 | 15:29.13 | 3:41.38 | 69688 | 86300
6 | 19:10.51 | 2:59.23 | 86301 | 99748
7 | 22:09.74 | 3:27.17 | 99749 | 115290
8 | 25:37.16 | 7:12.14 | 115291 | 147704
9 | 32:49.30 | 1:29.33 | 147705 | 154412
10 | 34:18.63 | 2:22.19 | 154413 | 165081
11 | 36:41.07 | 2:28.04 | 165082 | 176185
12 | 39:09.11 | 1:09.14 | 176186 | 181374
13 | 40:18.25 | 4:14.43 | 181375 | 200467
14 | 44:32.68 | 4:12.58 | 200468 | 219425
15 | 48:45.51 | 3:55.36 | 219426 | 237086


Track 1

Filename D:\download\Maria Pia De Vito & Burnoguala' Large Vocal Ensemble - Moresche e Altre Invenzioni\01 - Alla Lafia Cala.wav

Pre-gap length 0:00:02.00

Peak level 97.7 %
Extraction speed 5.6 X
Track quality 100.0 %
Test CRC 66176589
Copy CRC 66176589
Track not present in AccurateRip database
Copy OK

Track 2

Filename D:\download\Maria Pia De Vito & Burnoguala' Large Vocal Ensemble - Moresche e Altre Invenzioni\02 - Lafia Cala.wav

Peak level 97.7 %
Extraction speed 5.3 X
Track quality 100.0 %
Test CRC F24F595C
Copy CRC F24F595C
Track not present in AccurateRip database
Copy OK

Track 3

Filename D:\download\Maria Pia De Vito & Burnoguala' Large Vocal Ensemble - Moresche e Altre Invenzioni\03 - Hai, Lucia.wav

Peak level 95.4 %
Extraction speed 4.9 X
Track quality 99.9 %
Test CRC 06DFBE48
Copy CRC 06DFBE48
Track not present in AccurateRip database
Copy OK

Track 4

Filename D:\download\Maria Pia De Vito & Burnoguala' Large Vocal Ensemble - Moresche e Altre Invenzioni\04 - Tambilili.wav

Peak level 95.4 %
Extraction speed 5.5 X
Track quality 100.0 %
Test CRC B0CD8C4B
Copy CRC B0CD8C4B
Track not present in AccurateRip database
Copy OK

Track 5

Filename D:\download\Maria Pia De Vito & Burnoguala' Large Vocal Ensemble - Moresche e Altre Invenzioni\05 - Catalina.wav

Peak level 94.7 %
Extraction speed 6.6 X
Track quality 100.0 %
Test CRC DE33C1D0
Copy CRC DE33C1D0
Track not present in AccurateRip database
Copy OK

Track 6

Filename D:\download\Maria Pia De Vito & Burnoguala' Large Vocal Ensemble - Moresche e Altre Invenzioni\06 - Apra Finestra.wav

Peak level 97.7 %
Extraction speed 6.7 X
Track quality 100.0 %
Test CRC 526FBD7C
Copy CRC 526FBD7C
Track not present in AccurateRip database
Copy OK

Track 7

Filename D:\download\Maria Pia De Vito & Burnoguala' Large Vocal Ensemble - Moresche e Altre Invenzioni\07 - Chicchilichi'.wav

Peak level 94.4 %
Extraction speed 7.1 X
Track quality 100.0 %
Test CRC 65C7BEAF
Copy CRC 65C7BEAF
Track not present in AccurateRip database
Copy OK

Track 8

Filename D:\download\Maria Pia De Vito & Burnoguala' Large Vocal Ensemble - Moresche e Altre Invenzioni\08 - Lucia, celu.wav

Peak level 97.7 %
Extraction speed 8.2 X
Track quality 100.0 %
Test CRC D5A7C0C1
Copy CRC D5A7C0C1
Track not present in AccurateRip database
Copy OK

Track 9

Filename D:\download\Maria Pia De Vito & Burnoguala' Large Vocal Ensemble - Moresche e Altre Invenzioni\09 - Dindirindina.wav

Peak level 97.7 %
Extraction speed 6.5 X
Track quality 100.0 %
Test CRC 29708D4D
Copy CRC 29708D4D
Track not present in AccurateRip database
Copy OK

Track 10

Filename D:\download\Maria Pia De Vito & Burnoguala' Large Vocal Ensemble - Moresche e Altre Invenzioni\10 - Giorgia namolada.wav

Peak level 97.7 %
Extraction speed 7.5 X
Track quality 100.0 %
Test CRC 9BDE30E7
Copy CRC 9BDE30E7
Track not present in AccurateRip database
Copy OK

Track 11

Filename D:\download\Maria Pia De Vito & Burnoguala' Large Vocal Ensemble - Moresche e Altre Invenzioni\11 - Canta Giorgia canta.wav

Peak level 97.7 %
Extraction speed 6.3 X
Track quality 99.9 %
Test CRC 9B9D0C81
Copy CRC 9B9D0C81
Track not present in AccurateRip database
Copy OK

Track 12

Filename D:\download\Maria Pia De Vito & Burnoguala' Large Vocal Ensemble - Moresche e Altre Invenzioni\12 - Tutto lo di'.wav

Peak level 97.7 %
Extraction speed 6.4 X
Track quality 100.0 %
Test CRC 3E5A8C61
Copy CRC 3E5A8C61
Track not present in AccurateRip database
Copy OK

Track 13

Filename D:\download\Maria Pia De Vito & Burnoguala' Large Vocal Ensemble - Moresche e Altre Invenzioni\13 - O Lucia, Miau Miau.wav

Peak level 97.7 %
Extraction speed 8.7 X
Track quality 100.0 %
Test CRC E9E98220
Copy CRC E9E98220
Track not present in AccurateRip database
Copy OK

Track 14

Filename D:\download\Maria Pia De Vito & Burnoguala' Large Vocal Ensemble - Moresche e Altre Invenzioni\14 - Vecchie letrose.wav

Peak level 97.7 %
Extraction speed 8.9 X
Track quality 100.0 %
Test CRC 398AFF18
Copy CRC 398AFF18
Track not present in AccurateRip database
Copy OK

Track 15

Filename D:\download\Maria Pia De Vito & Burnoguala' Large Vocal Ensemble - Moresche e Altre Invenzioni\15 - Voccuccia de no pierzeco.wav

Peak level 97.7 %
Extraction speed 9.0 X
Track quality 100.0 %
Test CRC 204C924D
Copy CRC 204C924D
Track not present in AccurateRip database
Copy OK


None of the tracks are present in the AccurateRip database

No errors occurred

End of status report

–– CUETools DB Plugin V2.1.6

[CTDB TOCID: ivuhL9PYDGf9Z4xIV5C7GptZpAA-] found
Submit result: ivuhL9PYDGf9Z4xIV5C7GptZpAA- has been confirmed
Track | CTDB Status
1 | (1/1) Accurately ripped
2 | (1/1) Accurately ripped
3 | (1/1) Accurately ripped
4 | (1/1) Accurately ripped
5 | (1/1) Accurately ripped
6 | (1/1) Accurately ripped
7 | (1/1) Accurately ripped
8 | (1/1) Accurately ripped
9 | (1/1) Accurately ripped
10 | (1/1) Accurately ripped
11 | (1/1) Accurately ripped
12 | (1/1) Accurately ripped
13 | (1/1) Accurately ripped
14 | (1/1) Accurately ripped
15 | (1/1) Accurately ripped


==== Log checksum ECCF5CC8D530F316B3061C6C49DE0414519D38D94665592B85686E93DC5E995E ====

Maria Pia De Vito, Burnogualà Large Vocal Ensemble - Moresche e altre invenzioni (2018) {Parco Della Musica}
Maria Pia De Vito, Burnogualà Large Vocal Ensemble - Moresche e altre invenzioni (2018) {Parco Della Musica}


Thanks to the original ripper