Tags
Language
Tags

Mario Biondi - Yes You Live (2010) [2CDs] {Tattica}

Posted By: tiburon
Mario Biondi - Yes You Live (2010) [2CDs] {Tattica}

Mario Biondi - Yes You Live (2010) [2CDs] {Tattica}
EAC 1.0b1 | FLAC tracks level 8 | Cue+Log+M3U | Full Scans 400dpi | 856MB + 5% Recovery
MP3 CBR 320 Kbps | 221MB + 5% Recovery
Genre: Jazz, Funk, Soul
Mario Biondi - Yes You Live (2010) [2CDs] {Tattica}

The second live album by Italian soul/jazz vocalist Mario Biondi, recorded during his 2010 Spazio Tempo Italian tour, featured two jazz bands facing each other. In this double set, Biondi performs his most recent studio effort, If (2009), in its entirety, and adds a medley, a cover of "Nature Boy," three songs featuring acid jazz combo Incognito, and a studio version of the previously unreleased title track.

Track List

CD1 - Yes
01. Intro Medley
02. Nature Boy
03. Serenity
04. Something That Was Beautiful
05. Black Shop
06. Be Lonely
07. Little B's Poem
08. Cry Anymore
09. Winter In America
10. Love Dreamer
11. Ecstasy

CD2 - You
01. I Know It's Over
02. I Wanna Make It
03. If
04. No Mo' TroubleFeat. Incognito
05. Lowdown Feat. Incognito
06. Can't Get Enough Feat. Incognito
07. Bom De Doer
08. Everlasting Harmony
09. Yes You (Extended Version - Live In Studio)

musicians
Mario Biondi - voice
Andrea Celestino - bass
Fabio Nobile - drums
Michele Bianchi - guitar
Andrea Bertorelli - Fender Rhodes, piano
Claudio Filippini - piano
Lorenzo Tucci - drums
Luca Florian - percussion
Tommaso Scannapieco - bass
Giovanni Amato - trumpet
Beppe Di Benedetto - trombon
Daniele Scannapieco - sax
Vahimiti, Samantha Iorio, Wendy Lewis, Cristiana Polegri - chorus

Produced by Mario Biondi


Exact Audio Copy V1.0 beta 1 from 15. November 2010

EAC extraction logfile from 9. July 2011, 10:59

Mario Biondi / Yes You Live CD1

Used drive : HL-DT-STDVD-ROM GDR8161B Adapter: 0 ID: 1

Read mode : Secure
Utilize accurate stream : Yes
Defeat audio cache : Yes
Make use of C2 pointers : No

Read offset correction : 102
Overread into Lead-In and Lead-Out : No
Fill up missing offset samples with silence : Yes
Delete leading and trailing silent blocks : No
Null samples used in CRC calculations : Yes
Used interface : Native Win32 interface for Win NT & 2000
Gap handling : Appended to previous track

Used output format : User Defined Encoder
Selected bitrate : 768 kBit/s
Quality : High
Add ID3 tag : No
Command line compressor : C:\Program Files (x86)\Exact Audio Copy\FLAC\FLAC.EXE
Additional command line options : -8 -V -T "ARTIST=%a" -T "TITLE=%t" -T "ALBUM=%g" -T "DATE=%y" -T "TRACKNUMBER=%n" -T "TOTALTRACKS=%x" -T "GENRE=%m" -T "ALBUMARTIST=%v" -T "ALBUM ARTIST=%v" -T "COMMENT=EAC Secure Mode, Test & Copy, AccurateRip, FLAC -8" %s


TOC of the extracted CD

Track | Start | Length | Start sector | End sector
––––––––––––––––––––––––––––-
1 | 0:00.00 | 2:38.54 | 0 | 11903
2 | 2:38.54 | 5:36.19 | 11904 | 37122
3 | 8:14.73 | 5:18.41 | 37123 | 61013
4 | 13:33.39 | 4:15.55 | 61014 | 80193
5 | 17:49.19 | 5:36.38 | 80194 | 105431
6 | 23:25.57 | 3:50.64 | 105432 | 122745
7 | 27:16.46 | 3:14.71 | 122746 | 137366
8 | 30:31.42 | 5:27.07 | 137367 | 161898
9 | 35:58.49 | 5:05.04 | 161899 | 184777
10 | 41:03.53 | 4:42.47 | 184778 | 205974
11 | 45:46.25 | 4:50.51 | 205975 | 227775


Track 1

Filename D:\UPload\Mario Biondi - Yes You Live\CD1\01 - Intro Medley.wav

Pre-gap length 0:00:02.00

Peak level 96.5 %
Extraction speed 3.7 X
Track quality 99.9 %
Test CRC 959E4546
Copy CRC 959E4546
Accurately ripped (confidence 3) [BFCBEF49]
Copy OK

Track 2

Filename D:\UPload\Mario Biondi - Yes You Live\CD1\02 - Nature Boy.wav

Peak level 96.5 %
Extraction speed 5.7 X
Track quality 100.0 %
Test CRC 09B387DE
Copy CRC 09B387DE
Accurately ripped (confidence 3) [9A7B40EF]
Copy OK

Track 3

Filename D:\UPload\Mario Biondi - Yes You Live\CD1\03 - Serenity.wav

Peak level 96.5 %
Extraction speed 6.3 X
Track quality 100.0 %
Test CRC 5C8168B4
Copy CRC 5C8168B4
Accurately ripped (confidence 3) [99EF7161]
Copy OK

Track 4

Filename D:\UPload\Mario Biondi - Yes You Live\CD1\04 - Something That Was Beautiful.wav

Peak level 96.5 %
Extraction speed 6.7 X
Track quality 100.0 %
Test CRC 8D688A59
Copy CRC 8D688A59
Accurately ripped (confidence 3) [57F87839]
Copy OK

Track 5

Filename D:\UPload\Mario Biondi - Yes You Live\CD1\05 - Black Shop.wav

Peak level 96.5 %
Extraction speed 7.4 X
Track quality 100.0 %
Test CRC 143DBB7B
Copy CRC 143DBB7B
Accurately ripped (confidence 3) [199FEAAF]
Copy OK

Track 6

Filename D:\UPload\Mario Biondi - Yes You Live\CD1\06 - Be Lonely.wav

Peak level 96.5 %
Extraction speed 7.5 X
Track quality 100.0 %
Test CRC 973C62F2
Copy CRC 973C62F2
Accurately ripped (confidence 3) [7639FE53]
Copy OK

Track 7

Filename D:\UPload\Mario Biondi - Yes You Live\CD1\07 - Little B's Poem.wav

Peak level 96.5 %
Extraction speed 6.4 X
Track quality 99.9 %
Test CRC 60DA141A
Copy CRC 60DA141A
Accurately ripped (confidence 3) [664CB885]
Copy OK

Track 8

Filename D:\UPload\Mario Biondi - Yes You Live\CD1\08 - Cry Anymore.wav

Peak level 96.5 %
Extraction speed 7.7 X
Track quality 99.9 %
Test CRC 4E36900A
Copy CRC 4E36900A
Accurately ripped (confidence 3) [F10E7175]
Copy OK

Track 9

Filename D:\UPload\Mario Biondi - Yes You Live\CD1\09 - Winter In America.wav

Peak level 96.5 %
Extraction speed 9.0 X
Track quality 100.0 %
Test CRC 00CB4BA1
Copy CRC 00CB4BA1
Accurately ripped (confidence 3) [7F688E59]
Copy OK

Track 10

Filename D:\UPload\Mario Biondi - Yes You Live\CD1\10 - Love Dreamer.wav

Peak level 96.5 %
Extraction speed 9.2 X
Track quality 100.0 %
Test CRC 3E11E5C6
Copy CRC 3E11E5C6
Accurately ripped (confidence 3) [98C7C779]
Copy OK

Track 11

Filename D:\UPload\Mario Biondi - Yes You Live\CD1\11 - Ecstasy.wav

Peak level 96.5 %
Extraction speed 9.4 X
Track quality 100.0 %
Test CRC 17B90106
Copy CRC 17B90106
Accurately ripped (confidence 3) [2E3B3E57]
Copy OK


All tracks accurately ripped

No errors occurred

End of status report

==== Log checksum 5168E6E776CFE7297B03B7E42A0357A3198275EF613AD464999198174D79DD8B ====

Exact Audio Copy V1.0 beta 1 from 15. November 2010

EAC extraction logfile from 9. July 2011, 11:14

Mario Biondi / Yes You Live CD2

Used drive : HL-DT-STDVD-ROM GDR8161B Adapter: 0 ID: 1

Read mode : Secure
Utilize accurate stream : Yes
Defeat audio cache : Yes
Make use of C2 pointers : No

Read offset correction : 102
Overread into Lead-In and Lead-Out : No
Fill up missing offset samples with silence : Yes
Delete leading and trailing silent blocks : No
Null samples used in CRC calculations : Yes
Used interface : Native Win32 interface for Win NT & 2000
Gap handling : Appended to previous track

Used output format : User Defined Encoder
Selected bitrate : 768 kBit/s
Quality : High
Add ID3 tag : No
Command line compressor : C:\Program Files (x86)\Exact Audio Copy\FLAC\FLAC.EXE
Additional command line options : -8 -V -T "ARTIST=%a" -T "TITLE=%t" -T "ALBUM=%g" -T "DATE=%y" -T "TRACKNUMBER=%n" -T "TOTALTRACKS=%x" -T "GENRE=%m" -T "ALBUMARTIST=%v" -T "ALBUM ARTIST=%v" -T "COMMENT=EAC Secure Mode, Test & Copy, AccurateRip, FLAC -8" %s


TOC of the extracted CD

Track | Start | Length | Start sector | End sector
––––––––––––––––––––––––––––-
1 | 0:00.00 | 3:52.43 | 0 | 17442
2 | 3:52.43 | 5:44.65 | 17443 | 43307
3 | 9:37.33 | 5:52.36 | 43308 | 69743
4 | 15:29.69 | 7:12.49 | 69744 | 102192
5 | 22:42.43 | 4:33.70 | 102193 | 122737
6 | 27:16.38 | 4:17.48 | 122738 | 142060
7 | 31:34.11 | 5:14.64 | 142061 | 165674
8 | 36:49.00 | 3:52.09 | 165675 | 183083
9 | 40:41.09 | 5:19.54 | 183084 | 207062


Track 1

Filename D:\UPload\Mario Biondi - Yes You Live\CD2\01 - I Know It's Over.wav

Pre-gap length 0:00:02.00

Peak level 96.5 %
Extraction speed 4.9 X
Track quality 100.0 %
Test CRC 0E23E156
Copy CRC 0E23E156
Accurately ripped (confidence 3) [67A33176]
Copy OK

Track 2

Filename D:\UPload\Mario Biondi - Yes You Live\CD2\02 - I Wanna Make It.wav

Peak level 96.5 %
Extraction speed 5.8 X
Track quality 100.0 %
Test CRC 02FF9F3C
Copy CRC 02FF9F3C
Accurately ripped (confidence 3) [E733627E]
Copy OK

Track 3

Filename D:\UPload\Mario Biondi - Yes You Live\CD2\03 - If.wav

Peak level 96.5 %
Extraction speed 6.5 X
Track quality 100.0 %
Test CRC A97B25CF
Copy CRC A97B25CF
Accurately ripped (confidence 3) [80319586]
Copy OK

Track 4

Filename D:\UPload\Mario Biondi - Yes You Live\CD2\04 - No Mo' Trouble.wav

Peak level 96.5 %
Extraction speed 7.3 X
Track quality 100.0 %
Test CRC 36E03DBC
Copy CRC 36E03DBC
Accurately ripped (confidence 3) [8606B4F9]
Copy OK

Track 5

Filename D:\UPload\Mario Biondi - Yes You Live\CD2\05 - Low Down.wav

Peak level 96.5 %
Extraction speed 6.6 X
Track quality 99.9 %
Test CRC A6550650
Copy CRC A6550650
Accurately ripped (confidence 3) [EE7286E1]
Copy OK

Track 6

Filename D:\UPload\Mario Biondi - Yes You Live\CD2\06 - I Can't Get Enough.wav

Peak level 96.5 %
Extraction speed 7.9 X
Track quality 100.0 %
Test CRC F520C8DC
Copy CRC F520C8DC
Accurately ripped (confidence 3) [34165708]
Copy OK

Track 7

Filename D:\UPload\Mario Biondi - Yes You Live\CD2\07 - Bom De Doer.wav

Peak level 96.5 %
Extraction speed 8.4 X
Track quality 100.0 %
Test CRC C7BD7223
Copy CRC C7BD7223
Accurately ripped (confidence 3) [811DBCC7]
Copy OK

Track 8

Filename D:\UPload\Mario Biondi - Yes You Live\CD2\08 - Everlasting Harmony.wav

Peak level 96.5 %
Extraction speed 7.0 X
Track quality 99.9 %
Test CRC C803CCFE
Copy CRC C803CCFE
Accurately ripped (confidence 3) [930DF7F1]
Copy OK

Track 9

Filename D:\UPload\Mario Biondi - Yes You Live\CD2\09 - Yes You (Extended Version).wav

Pre-gap length 0:00:02.00

Peak level 94.5 %
Extraction speed 8.8 X
Track quality 100.0 %
Test CRC 76515923
Copy CRC 76515923
Accurately ripped (confidence 3) [86DB9D77]
Copy OK


All tracks accurately ripped

No errors occurred

End of status report

==== Log checksum AF9FE64AACE7918504311874194C93BA674098E898D184B797C475E89691A6B7 ====

Mario Biondi - Yes You Live (2010) [2CDs] {Tattica}
Mario Biondi - Yes You Live (2010) [2CDs] {Tattica}
Mario Biondi - Yes You Live (2010) [2CDs] {Tattica}


Thanks to the original ripper