Tags
Language
Tags

Marvin Gaye & Tammi Terrell - 20th Century Masters - The Millennium Collection: The Best Of Marvin Gaye & Tammi Terrell (2000)

Posted By: BlondStyle
Marvin Gaye & Tammi Terrell - 20th Century Masters - The Millennium Collection: The Best Of Marvin Gaye & Tammi Terrell (2000)

Marvin Gaye & Tammi Terrell - 20th Century Masters - The Millennium Collection: The Best Of (2000)
R&B, Soul, Pop-Soul, Motown | EAC Rip | FLAC, Tracks+CUE+LOG+Scans (JPEG) | 28:36 Min | 250,16 Mb
Label: The Universal/Motown Records Group (USA) | Cat.# 012 157 600-2 | Released: 2000-04-11
Marvin Gaye & Tammi Terrell - 20th Century Masters - The Millennium Collection: The Best Of Marvin Gaye & Tammi Terrell (2000)

This installment in the 20th Century Masters: The Millennium Collection series is an excellent 11-track overview of Marvin Gaye and Tammi Terrell's legendary duet partnership, made all the more invaluable by Motown's inexplicable failure to keep any other Gaye/Terrell compilation in print. All the important items are here, from "Your Precious Love" and "Ain't No Mountain High Enough" to "Ain't Nothing Like the Real Thing" and "You're All I Need to Get By." While other volumes in this overall pretty decent budget-line series still have a definite feeling of incompleteness, this one plays like a detailed look at Gaye and Terrell's best material together; it differs from the early-'70s comp Marvin Gaye and Tammi Terrell: Greatest Hits by omitting "What You Gave" and "The Onion Song," and including "Two Can Have a Party."
~Review by Steve Huey

Marvin Gaye & Tammi Terrell - 20th Century Masters - The Millennium Collection: The Best Of Marvin Gaye & Tammi Terrell (2000)

Marvin Gaye & Tammi Terrell - 20th Century Masters - The Millennium Collection: The Best Of Marvin Gaye & Tammi Terrell (2000)




Release of this CD: 2000, April, 11 [CD The Universal/Motown Records Group (USA), Cat.# 012 157 600-2, UPC: 601215760026]
℗© 2000 The Universal/Motown Records Group, a Division of UMG Recordings, Inc.
Distributed by Universal Music and Video Distribution, Inc.
Made in U.S.A.


Credits:

Producer – Nickolas Ashford & Valerie Simpson* (tracks: 3 to 5, 9), Harvey Fuqua (tracks: 1, 2, 6 to 8, 10, 11), Johnny Bristol (tracks: 1, 2, 6 to 8, 10)

Tracklist:

01. Your Precious Love (03:04)
02. Ain't No Mountain High Enough (02:29)
03. You're All I Need To Get By (02:50)
04. Ain't Nothing Like The Real Thing (02:15)
05. Good Lovin' Ain't Easy To Come By (02:29)
06. If This World Were Mine (02:42)
07. Two Can Have A Party (02:15)
08. If I Could Build My Whole World Around You (02:23)
09. Keep On Lovin' Me Honey (02:31)
10. You Ain't Livin' Till You're Lovin' (02:48)
11. Hold Me Oh My Darling (02:49)

Exact Audio Copy V0.99 prebeta 5 from 4. May 2009

EAC extraction logfile from 27. November 2009, 14:38

Marvin Gaye & Tammy Terrell / The Best Of (The Millenium Collection)

Used drive : HL-DT-STDVDRAM GE20LU11 Adapter: 2 ID: 0

Read mode : Secure
Utilize accurate stream : Yes
Defeat audio cache : Yes
Make use of C2 pointers : No

Read offset correction : 667
Overread into Lead-In and Lead-Out : No
Fill up missing offset samples with silence : Yes
Delete leading and trailing silent blocks : No
Null samples used in CRC calculations : Yes
Used interface : Native Win32 interface for Win NT & 2000
Gap handling : Appended to previous track

Used output format : User Defined Encoder
Selected bitrate : 320 kBit/s
Quality : High
Add ID3 tag : No
Command line compressor : C:\Program Files (x86)\Exact Audio Copy\Flac\flac.exe
Additional command line options : -V -8 -T "artist=%a" -T "title=%t" -T "album=%g" -T "date=%y" -T "tracknumber=%n" -T "genre=%m" %s


TOC of the extracted CD

Track | Start | Length | Start sector | End sector
––––––––––––––––––––––––––––-
1 | 0:00.00 | 3:03.72 | 0 | 13796
2 | 3:03.72 | 2:29.05 | 13797 | 24976
3 | 5:33.02 | 2:50.08 | 24977 | 37734
4 | 8:23.10 | 2:15.27 | 37735 | 47886
5 | 10:38.37 | 2:28.48 | 47887 | 59034
6 | 13:07.10 | 2:42.12 | 59035 | 71196
7 | 15:49.22 | 2:14.60 | 71197 | 81306
8 | 18:04.07 | 2:22.53 | 81307 | 92009
9 | 20:26.60 | 2:31.15 | 92010 | 103349
10 | 22:58.00 | 2:48.30 | 103350 | 115979
11 | 25:46.30 | 2:49.02 | 115980 | 128656


Track 1

Filename C:\Users\Desktop\Marvin Gaye & Tammi Terrell - The Best Of (The Millenium Collection)\01 - Your Precious Love .wav

Pre-gap length 0:00:02.00

Peak level 70.8 %
Track quality 99.9 %
Test CRC C4BDB157
Copy CRC C4BDB157
Accurately ripped (confidence 8) [B03BFD68]
Copy OK

Track 2

Filename C:\Users\Desktop\Marvin Gaye & Tammi Terrell - The Best Of (The Millenium Collection)\02 - Ain't No Mountain High Enough .wav

Pre-gap length 0:00:01.25

Peak level 89.1 %
Track quality 99.9 %
Test CRC 2D2194FB
Copy CRC 2D2194FB
Accurately ripped (confidence 8) [E72EDEF2]
Copy OK

Track 3

Filename C:\Users\Desktop\Marvin Gaye & Tammi Terrell - The Best Of (The Millenium Collection)\03 - You're All I Need To Get By .wav

Pre-gap length 0:00:01.47

Peak level 89.1 %
Track quality 100.0 %
Test CRC 9FD8CEF7
Copy CRC 9FD8CEF7
Accurately ripped (confidence 8) [225F7373]
Copy OK

Track 4

Filename C:\Users\Desktop\Marvin Gaye & Tammi Terrell - The Best Of (The Millenium Collection)\04 - Aint't Nothing Like The Real Thing .wav

Pre-gap length 0:00:01.43

Peak level 89.1 %
Track quality 100.0 %
Test CRC CB851CC7
Copy CRC CB851CC7
Accurately ripped (confidence 8) [3BA0A478]
Copy OK

Track 5

Filename C:\Users\Desktop\Marvin Gaye & Tammi Terrell - The Best Of (The Millenium Collection)\05 - Good Lovin' Ain't Easy To Come By .wav

Pre-gap length 0:00:01.42

Peak level 89.1 %
Track quality 100.0 %
Test CRC AA558A29
Copy CRC AA558A29
Accurately ripped (confidence 8) [5A1AB333]
Copy OK

Track 6

Filename C:\Users\Desktop\Marvin Gaye & Tammi Terrell - The Best Of (The Millenium Collection)\06 - If This World Were Mine .wav

Pre-gap length 0:00:01.43

Peak level 89.1 %
Track quality 100.0 %
Test CRC 663415B1
Copy CRC 663415B1
Accurately ripped (confidence 8) [33E30A00]
Copy OK

Track 7

Filename C:\Users\Desktop\Marvin Gaye & Tammi Terrell - The Best Of (The Millenium Collection)\07 - Two Can Have A Party .wav

Pre-gap length 0:00:01.47

Peak level 95.8 %
Track quality 99.9 %
Test CRC E2ED24BE
Copy CRC E2ED24BE
Accurately ripped (confidence 8) [6DB3FC87]
Copy OK

Track 8

Filename C:\Users\Desktop\Marvin Gaye & Tammi Terrell - The Best Of (The Millenium Collection)\08 - If I Could Build My Whole World Around You .wav

Pre-gap length 0:00:01.45

Peak level 89.1 %
Track quality 100.0 %
Test CRC E6FFF6EA
Copy CRC E6FFF6EA
Accurately ripped (confidence 8) [457D0EA6]
Copy OK

Track 9

Filename C:\Users\Desktop\Marvin Gaye & Tammi Terrell - The Best Of (The Millenium Collection)\09 - Keep On Lovin' Me Honey .wav

Pre-gap length 0:00:01.40

Peak level 89.1 %
Track quality 100.0 %
Test CRC 5E551788
Copy CRC 5E551788
Accurately ripped (confidence 8) [F49AB87E]
Copy OK

Track 10

Filename C:\Users\Desktop\Marvin Gaye & Tammi Terrell - The Best Of (The Millenium Collection)\10 - You Ain't Livin' Till You're Lovin' .wav

Pre-gap length 0:00:01.23

Peak level 89.1 %
Track quality 100.0 %
Test CRC 9C1A4526
Copy CRC 9C1A4526
Accurately ripped (confidence 8) [2933C562]
Copy OK

Track 11

Filename C:\Users\Desktop\Marvin Gaye & Tammi Terrell - The Best Of (The Millenium Collection)\11 - Hold Me Oh My Darling .wav

Pre-gap length 0:00:01.40

Peak level 89.1 %
Track quality 99.9 %
Test CRC 8C116668
Copy CRC 8C116668
Accurately ripped (confidence 8) [810ABEC4]
Copy OK


All tracks accurately ripped

No errors occurred

End of status report

––––––––––––––––––––––––––––––––––––––––
Analyzed: Marvin Gaye & Tammy Terrell / The Best Of (The Millenium Collection)
––––––––––––––––––––––––––––––––––––––––

DR Peak RMS Duration Track
––––––––––––––––––––––––––––––––––––––––
DR9 -2.99 dB -14.61 dB 3:04 01-Your Precious Love
DR10 -1.00 dB -12.95 dB 2:29 02-Ain't No Mountain High Enough
DR9 -1.00 dB -12.64 dB 2:50 03-You're All I Need To Get By
DR10 -1.00 dB -12.70 dB 2:15 04-Aint't Nothing Like The Real Thing
DR10 -1.00 dB -12.29 dB 2:29 05-Good Lovin' Ain't Easy To Come By
DR9 -1.00 dB -12.74 dB 2:42 06-If This World Were Mine
DR10 -0.37 dB -13.41 dB 2:15 07-Two Can Have A Party
DR10 -1.00 dB -12.56 dB 2:23 08-If I Could Build My Whole World Around You
DR9 -1.00 dB -12.50 dB 2:31 09-Keep On Lovin' Me Honey
DR9 -1.00 dB -12.14 dB 2:48 10-You Ain't Livin' Till You're Lovin'
DR10 -1.00 dB -12.10 dB 2:49 11-Hold Me Oh My Darling
––––––––––––––––––––––––––––––––––––––––

Number of tracks: 11
Official DR value: DR10

Samplerate: 44100 Hz
Channels: 2
Bits per sample: 16
Bitrate: 856 kbps
Codec: FLAC
================================================================================

Thanks to original releaser

password: BlondStyle