Tags
Language
Tags

Lucy Crowe, Mary Bevan, Bridget Cunningham, London Early Opera - Handel's Queens: Cuzzoni & Faustina (2019)

Posted By: ArlegZ
Lucy Crowe, Mary Bevan, Bridget Cunningham, London Early Opera - Handel's Queens: Cuzzoni & Faustina (2019)

Lucy Crowe, Mary Bevan, Bridget Cunningham, London Early Opera - Handel's Queens: Cuzzoni & Faustina (2019)
EAC | FLAC | Image (Cue & Log) ~ 638 Mb | Total time: 127:56 | Scans included
Classical | Label: Signum Classics | SIGCD579 | Recorded: 2019

Handels Queens features some of the most exquisite pieces of music written by G.F. Handel and his contemporaries for the two finest singers of the eighteenth century, Faustina Bordoni and Francesca Cuzzoni. Often wrongfully framed as rivals, these dazzling new recordings with Mary Bevan and Lucy Crowe reveal the distinctive yet versatile talent of the Italian vocalists. Led by London Early Opera Director, Bridget Cunningham, Handels Queens serves an example of the groups dedication to imaginative programming and outstanding period performance, placing them at the forefront of baroque research.

Performer:
Lucy Crowe, soprano (Francesca Cuzzoni)
Mary Bevan, soprano (Faustina Bordoni)
London Early Opera
Bridget Cunningham, musical director

Track List:
CD1:
Carlo Pollarolo (1653-1723)
01. Sinfonia, from Ariodante (1718)
George Frideric Handel (1685-1759)
02. Da tempeste il legno infranto, from Giulio Cesare HWV 17
Johann Adilph Hasse (1699-1783)
03. Se fosse il mio diletto, from Dalisa
George Frideric Handel
04. Recit: È tale Otton? and Aria: Falsa immagine, from Ottone HWV 15
Nicola Porpora (1686-1768)
05. Son prigioniera d’amore, from Poro
Giuseppe Maria Orlandini (1676-1760)
06. Stelle, tiranne stelle, from Nerone
George Frideric Handel
07. Solitudini amate, from Alessandro HWV 21
Carlo Pollarolo
08. Serba le belle lagrime, from Ariodante (1718)
George Frideric Handel
09. Recit: Elisa che ricerchi and Aria: Voglio amore, from Tolomeo HWV 25
Antonio Vivaldi (1678-1741)
10. Fra catene ognor penando, from Scanderbeg RV 732
11. Nelle mie selve natìe, from Scanderbeg RV 732
George Frideric Handel
12. Placa l’alma, duet from Alessandro HWV 21
CD2:
George Frideric Handel
01. Scoglio d’immota fronte, from Scipione HWV 20
Pietro Torri (1650-1737)
02. Recit: La sua disperazione and Aria: Se a ammollire il crudo amante, from Amadis di Grecia
George Frideric Handel
03. Gelosia, spietata Aletto, from Admeto HWV 22
Leonardo Leo (1694-1744)
04. Quel nome se ascolto, from Il Ciro Riconosciuto (1739 Carnivale version)
George Frideric Handel
05. Il volo così fido al dolce, from Riccardo Primo HWV 23
06. Alla sua gabbia d’oro, from Alessandro HWV 21
Giovanni Bononcini (1670-1747)
07. Sento che già il pensier, from Astianatte
08. Deh! lascia ocore, from Astianatte
09. Menuet, from Astianatte
10. Ascolta o figlio, from Astianatte
Leonardo Vinci (1690-1730) arr. Handel
11. Dea triforme, astro fecondo, rom L'Elpidia
Johann Adolph Hasse
12. Mi credi spietata?, from Artaserse
Attilio Ariosti (1666-1729)
13. Rendi al Padre in me la figlia, from Caio Marzio Coriolano
Maurice Greene (1696-1755)
14. La Liberta, Cantata (Aria di camera)


Exact Audio Copy V1.5 from 20. February 2020

EAC extraction logfile from 7. August 2020, 14:57

Mary Bevan, Lucy Crowe, Bridget Cunningham / Handel's Queens (Disc 1)

Used drive : ATAPI iHAS124 F Adapter: 1 ID: 0

Read mode : Secure
Utilize accurate stream : Yes
Defeat audio cache : Yes
Make use of C2 pointers : No

Read offset correction : 6
Overread into Lead-In and Lead-Out : No
Fill up missing offset samples with silence : Yes
Delete leading and trailing silent blocks : No
Null samples used in CRC calculations : Yes
Used interface : Native Win32 interface for Win NT & 2000

Used output format : User Defined Encoder
Selected bitrate : 1024 kBit/s
Quality : High
Add ID3 tag : No
Command line compressor : C:\Program Files (x86)\Exact Audio Copy\FLAC\FLAC.EXE
Additional command line options : -6 -V -T "ARTIST=%artist%" -T "TITLE=%title%" -T "ALBUM=%albumtitle%" -T "DATE=%year%" -T "TRACKNUMBER=%tracknr%" -T "GENRE=%genre%" -T "COMMENT=%comment%" -T "BAND=%albuminterpret%" -T "ALBUMARTIST=%albuminterpret%" -T "COMPOSER=%composer%" %haslyrics%–tag-from-file=LYRICS="%lyricsfile%"%haslyrics% -T "DISCNUMBER=%cdnumber%" -T "TOTALDISCS=%totalcds%" -T "TOTALTRACKS=%numtracks%" %hascover%–picture="%coverfile%"%hascover% %source% -o %dest%


TOC of the extracted CD

Track | Start | Length | Start sector | End sector
––––––––––––––––––––––––––––-
1 | 0:00.00 | 3:58.66 | 0 | 17915
2 | 3:58.66 | 6:08.51 | 17916 | 45566
3 | 10:07.42 | 8:18.69 | 45567 | 82985
4 | 18:26.36 | 6:37.09 | 82986 | 112769
5 | 25:03.45 | 5:28.33 | 112770 | 137402
6 | 30:32.03 | 5:27.00 | 137403 | 161927
7 | 35:59.03 | 6:13.00 | 161928 | 189902
8 | 42:12.03 | 6:01.03 | 189903 | 216980
9 | 48:13.06 | 5:04.72 | 216981 | 239852
10 | 53:18.03 | 3:43.69 | 239853 | 256646
11 | 57:01.72 | 3:38.66 | 256647 | 273062
12 | 60:40.63 | 3:16.66 | 273063 | 287828


Range status and errors

Selected range

Filename C:\EACRip\HANDEL\Handel at […]\Handel's Queens (L.Crowe, M.Bevan, B.Cunningham) (2019)\CD1\Handel's Queens (Disc 1) - Mary Bevan, Lucy Crowe, Bridget Cunningham.wav

Peak level 99.9 %
Extraction speed 9.1 X
Range quality 100.0 %
Test CRC 7985162D
Copy CRC 7985162D
Copy OK

No errors occurred


AccurateRip summary

Track 1 accurately ripped (confidence 2) [F08F84B8] (AR v2)
Track 2 accurately ripped (confidence 2) [09CAC8F9] (AR v2)
Track 3 accurately ripped (confidence 2) [8BA1A9E3] (AR v2)
Track 4 accurately ripped (confidence 2) [9D93B863] (AR v2)
Track 5 accurately ripped (confidence 2) [789D5594] (AR v2)
Track 6 accurately ripped (confidence 2) [2E9E5C67] (AR v2)
Track 7 accurately ripped (confidence 2) [BDC37806] (AR v2)
Track 8 accurately ripped (confidence 2) [133E6A21] (AR v2)
Track 9 accurately ripped (confidence 2) [A0BF18AB] (AR v2)
Track 10 accurately ripped (confidence 2) [B5E41475] (AR v2)
Track 11 accurately ripped (confidence 2) [1469E4F7] (AR v2)
Track 12 accurately ripped (confidence 2) [18DDB986] (AR v2)

All tracks accurately ripped

End of status report

–– CUETools DB Plugin V2.1.6

[CTDB TOCID: g0AMcqJemktcTp_NCqbRUkSoNgo-] found
Submit result: g0AMcqJemktcTp_NCqbRUkSoNgo- has been confirmed
Track | CTDB Status
1 | (1/1) Accurately ripped
2 | (1/1) Accurately ripped
3 | (1/1) Accurately ripped
4 | (1/1) Accurately ripped
5 | (1/1) Accurately ripped
6 | (1/1) Accurately ripped
7 | (1/1) Accurately ripped
8 | (1/1) Accurately ripped
9 | (1/1) Accurately ripped
10 | (1/1) Accurately ripped
11 | (1/1) Accurately ripped
12 | (1/1) Accurately ripped


==== Log checksum B54FD849AFD0205106BAE74AE50B368462DBC96B9AF53FC2CA3A3168D8AF3B51 ====


Exact Audio Copy V1.5 from 20. February 2020

EAC extraction logfile from 7. August 2020, 16:19

Mary Bevan, Lucy Crowe, Bridget Cunningham / Handel's Queens (Disc 2)

Used drive : ATAPI iHAS124 F Adapter: 1 ID: 0

Read mode : Secure
Utilize accurate stream : Yes
Defeat audio cache : Yes
Make use of C2 pointers : No

Read offset correction : 6
Overread into Lead-In and Lead-Out : No
Fill up missing offset samples with silence : Yes
Delete leading and trailing silent blocks : No
Null samples used in CRC calculations : Yes
Used interface : Native Win32 interface for Win NT & 2000

Used output format : User Defined Encoder
Selected bitrate : 1024 kBit/s
Quality : High
Add ID3 tag : No
Command line compressor : C:\Program Files (x86)\Exact Audio Copy\FLAC\FLAC.EXE
Additional command line options : -6 -V -T "ARTIST=%artist%" -T "TITLE=%title%" -T "ALBUM=%albumtitle%" -T "DATE=%year%" -T "TRACKNUMBER=%tracknr%" -T "GENRE=%genre%" -T "COMMENT=%comment%" -T "BAND=%albuminterpret%" -T "ALBUMARTIST=%albuminterpret%" -T "COMPOSER=%composer%" %haslyrics%–tag-from-file=LYRICS="%lyricsfile%"%haslyrics% -T "DISCNUMBER=%cdnumber%" -T "TOTALDISCS=%totalcds%" -T "TOTALTRACKS=%numtracks%" %hascover%–picture="%coverfile%"%hascover% %source% -o %dest%


TOC of the extracted CD

Track | Start | Length | Start sector | End sector
––––––––––––––––––––––––––––-
1 | 0:00.00 | 5:22.50 | 0 | 24199
2 | 5:22.50 | 4:18.15 | 24200 | 43564
3 | 9:40.65 | 5:27.58 | 43565 | 68147
4 | 15:08.48 | 4:43.20 | 68148 | 89392
5 | 19:51.68 | 5:58.57 | 89393 | 116299
6 | 25:50.50 | 8:17.16 | 116300 | 153590
7 | 34:07.66 | 4:34.55 | 153591 | 174195
8 | 38:42.46 | 4:18.38 | 174196 | 193583
9 | 43:01.09 | 1:31.49 | 193584 | 200457
10 | 44:32.58 | 1:18.02 | 200458 | 206309
11 | 45:50.60 | 4:07.35 | 206310 | 224869
12 | 49:58.20 | 3:44.16 | 224870 | 241685
13 | 53:42.36 | 5:05.68 | 241686 | 264628
14 | 58:48.29 | 5:07.32 | 264629 | 287685


Range status and errors

Selected range

Filename C:\EACRip\HANDEL\Handel at […]\Handel's Queens (L.Crowe, M.Bevan, B.Cunningham) (2019)\CD2\Handel's Queens (Disc 2) - Mary Bevan, Lucy Crowe, Bridget Cunningham.wav

Peak level 99.8 %
Extraction speed 9.1 X
Range quality 100.0 %
Test CRC 67ABCC21
Copy CRC 67ABCC21
Copy OK

No errors occurred


AccurateRip summary

Track 1 accurately ripped (confidence 2) [253A1D2C] (AR v2)
Track 2 accurately ripped (confidence 2) [2535B2EF] (AR v2)
Track 3 accurately ripped (confidence 2) [B6BBAFF4] (AR v2)
Track 4 accurately ripped (confidence 2) [99470C35] (AR v2)
Track 5 accurately ripped (confidence 2) [29ED5E84] (AR v2)
Track 6 accurately ripped (confidence 2) [1B172607] (AR v2)
Track 7 accurately ripped (confidence 2) [49842612] (AR v2)
Track 8 accurately ripped (confidence 2) [05C5AEC9] (AR v2)
Track 9 accurately ripped (confidence 2) [221AD783] (AR v2)
Track 10 accurately ripped (confidence 2) [8FD15D3E] (AR v2)
Track 11 accurately ripped (confidence 2) [6ACD12ED] (AR v2)
Track 12 accurately ripped (confidence 2) [B4A9828E] (AR v2)
Track 13 accurately ripped (confidence 2) [47CBE127] (AR v2)
Track 14 accurately ripped (confidence 2) [624E9331] (AR v2)

All tracks accurately ripped

End of status report

–– CUETools DB Plugin V2.1.6

[CTDB TOCID: D5v5iQoEBCTyNZhfgl0fVgnpJBA-] found
Submit result: D5v5iQoEBCTyNZhfgl0fVgnpJBA- has been confirmed
Track | CTDB Status
1 | (1/1) Accurately ripped
2 | (1/1) Accurately ripped
3 | (1/1) Accurately ripped
4 | (1/1) Accurately ripped
5 | (1/1) Accurately ripped
6 | (1/1) Accurately ripped
7 | (1/1) Accurately ripped
8 | (1/1) Accurately ripped
9 | (1/1) Accurately ripped
10 | (1/1) Accurately ripped
11 | (1/1) Accurately ripped
12 | (1/1) Accurately ripped
13 | (1/1) Accurately ripped
14 | (1/1) Accurately ripped


==== Log checksum 193BA9CA0BDFD64126269A0F85115A9787A7564BB7A1EC7B251B22FEAFDB76A5 ====

Lucy Crowe, Mary Bevan, Bridget Cunningham, London Early Opera - Handel's Queens: Cuzzoni & Faustina (2019)

Thanks to the original releaser