Subcategories
Tags
Language
Tags

Maurizio Pollini - Johann Sebastian Bach: The Well-Tempered Clavier, Book 1 (2009) 2CDs [Re-Up]

Posted By: Designol
Maurizio Pollini - Johann Sebastian Bach: The Well-Tempered Clavier, Book 1 (2009) 2CDs [Re-Up]

Maurizio Pollini - Johann Sebastian Bach: The Well-Tempered Clavier, Book 1 (2009)
EAC | APE | Image (Cue&Log) ~ 380 Mb | Mp3 (CBR320) ~ 260 Mb | Scans included
Classical | Label: Deutsche Grammophon | # 0289 477 8078 GH2 | Time: 01:50:24

There's nothing at all wrong with Maurizio Pollini's 2009 performance of Bach's Well-Tempered Clavier, Book 1. The Italian pianist's intellectual lucidity, interpretive clarity, and technical virtuosity are apparent in every prelude and fugue, and his probing insights and penetrating analysis inform every note. However, there is almost nothing right with the sound quality of the recording. The piano sounds too distant, making it hard to hear precisely what Pollini is doing, but oddly, the ambient sound is too present, making every extraneous noise too loud. One should not hear the pedals being pressed and lifted, much less the clatter of the hammers and the twanging of the strings above the sound of the music. Worse yet, one can hear what sounds like every breath Pollini takes nearly as loudly as every note he plays. These are all grievous flaws that should have been eliminated, and their presence fatally undermines the brilliance of Pollini's performances. A reengineered version of these performances would be most welcome, but the present recording is so flawed that it virtually destroys Pollini's playing.

Review by James Leonard, Allmusic.com

During the 1980s I heard Maurizio Pollini perform Bach’s Well-Tempered Clavier Book I live in concert. At the time his interpretations seemed straightforward, direct, and highly focused, never extreme regarding tempo choices, sometimes reserved, rarely humorous, ornamentally conservative, and not without moments of vehement dynamism and limpid sensitivity. At long last, Pollini has brought the “48” to the recording studio, having, by his own account, restudied and rethought the scores.

Still, my 2009 impressions largely remain the same as a quarter-century ago. The pianist eschews tempo modification as much as possible and will have none of the agogic pauses or marked contrasts between legato and detached articulation characterizing Angela Hewitt’s 2008 Hyperion remakes. Unlike Bach players who underline fugal subject entrances and leave the rest of the counterpoint to play itself, Pollini never allows a line’s melodic trajectory to slacken. You clearly hear this in the C minor, C-sharp major, D-sharp minor, F-sharp major, G minor, B minor, and the difficult-to-voice A minor fugues, and in slow-moving preludes like the E-flat minor and B-flat minor, where the accompanying chords’ linear moving parts make themselves felt without artificial highlighting.

The aforementioned vehemence sometimes yields heavy and even blurred textures, as in the G major and C minor preludes (the latter contains a tiny wrong note that may be unique among Pollini’s studio efforts!). At the same time, the G minor prelude’s sonorous half-tints and gorgeously tapered trills alone defy any notion of Pollini as a cold pianist. And if the C major prelude’s subtle gradations of touch and voicing don’t register upon first hearing, they certainly will by the second or third time. In sum, there’s no disputing the integrity and stature of Pollini’s Bach, although, among contemporaneous editions, Koroliov and Ashkenazy take top honors for crispness and joy.

Review by Jed Distler, ClassicsToday.com

Maurizio Pollini - Johann Sebastian Bach: The Well-Tempered Clavier, Book 1 (2009) 2CDs [Re-Up]



Maurizio Pollini - Johann Sebastian Bach: The Well-Tempered Clavier, Book 1 (2009) 2CDs [Re-Up]



Tracklist:

Das Wohltemperierte Clavier
The Well-tempered Clavier
Part 1, BWV 846-869

CD1:

01. Praeludium I C-dur - BWV 846 (1:52)
02. Fuga I C-dur - BWV 846 (1:56)
03. Praeludium II c-moll - BWV 847 (1:30)
04. Fuga II c-moll - BWV 847 (1:40)
05. Praeludium III Cis-dur - BWV 848 (1:13)
06. Fuga III Cis-dur - BWV 848 (2:14)
07. Praeludium IV cis-moll - BWV 849 (2:43)
08. Fuga IV cis-moll - BWV 849 (4:47)
09. Praeludium V D-dur - BWV 850 (1:11)
10. Fuga V D-dur - BWV 850 (1:47)
11. Praeludium VI d-moll - BWV 851 (1:25)
12. Fuga VI d-moll - BWV 851 (1:58)
13. Praeludium VII Es-dur - BWV 852 (3:58)
14. Fuga VII Es-dur - BWV 852 (1:39)
15. Praeludium VIII es-moll - BWV 853 (3:24)
16. Fuga VIII es-moll - BWV 853 (5:59)
17. Praeludium IX E-dur - BWV 854 (1:23)
18. Fuga IX E-dur - BWV 854 (1:11)
19. Praeludium X e-moll - BWV 855 (2:18)
20. Fuga X e-moll - BWV 855 (1:10)
21. Praeludium XI F-dur - BWV 856 (0:54)
22. Fuga XI F-dur - BWV 856 (1:14)
23. Praeludium XII f-moll - BWV 857 (2:02)
24. Fuga XII f-moll - BWV 857 (3:57)

CD2:

01. Praeludium XIII Fis-dur - BWV 858 (1:15)
02. Fuga XIII Fis-dur - BWV 858 (1:52)
03. Praeludium XIV fis-moll - BWV 859 (1:03)
04. Fuga XIV fis-moll - BWV 859 (3:28)
05. Praeludium XV G-dur - BWV 860 (0:56)
06. Fuga XV G-dur - BWV 860 (2:52)
07. Praeludium XVI g-moll - BWV 861 (2:00)
08. Fuga XVI g-moll - BWV 861 (2:19)
09. Praeludium XVII As-dur - BWV 862 (1:33)
10. Fuga XVII As-dur - BWV 862 (2:21)
11. Praeludium XVIII gis-moll - BWV 863 (1:33)
12. Fuga XVIII gis-moll - BWV 863 (2:36)
13. Praeludium XIX A-dur - BWV 864 (1:14)
14. Fuga XIX A-dur - BWV 864 (2:18)
15. Praeludium XX a-moll - BWV 865 (1:02)
16. Fuga XX a-moll - BWV 865 (3:47)
17. Praeludium XXI B-dur - BWV 866 (1:11)
18. Fuga XXI B-dur - BWV 866 (1:32)
19. Praeludium XXII b-moll - BWV 867 (3:00)
20. Fuga XXII b-moll - BWV 867 (3:33)
21. Praeludium XXIII H-dur - BWV 868 (1:19)
22. Fuga XXIII H-dur - BWV 868 (2:05)
23. Praeludium XXIV h-moll - BWV 869 (5:08)
24. Fuga XXIV h-moll - BWV 869 (7:03)


Exact Audio Copy V0.99 prebeta 5 from 4. May 2009

EAC extraction logfile from 9. October 2009, 19:59

Maurizio Pollini / Bach -The Well-Tempered Clavier, Book I (CD1)

Used drive : PIONEER DVD-RW DVR-111D Adapter: 0 ID: 0

Read mode : Secure
Utilize accurate stream : Yes
Defeat audio cache : Yes
Make use of C2 pointers : No

Read offset correction : 48
Overread into Lead-In and Lead-Out : No
Fill up missing offset samples with silence : Yes
Delete leading and trailing silent blocks : No
Null samples used in CRC calculations : No
Used interface : Native Win32 interface for Win NT & 2000

Used output format : Internal WAV Routines
Sample format : 44.100 Hz; 16 Bit; Stereo


TOC of the extracted CD

Track | Start | Length | Start sector | End sector
––––––––––––––––––––––––––––-
1 | 0:00.00 | 1:52.17 | 0 | 8416
2 | 1:52.17 | 1:55.55 | 8417 | 17096
3 | 3:47.72 | 1:29.63 | 17097 | 23834
4 | 5:17.60 | 1:39.65 | 23835 | 31324
5 | 6:57.50 | 1:13.03 | 31325 | 36802
6 | 8:10.53 | 2:14.22 | 36803 | 46874
7 | 10:25.00 | 2:42.39 | 46875 | 59063
8 | 13:07.39 | 4:47.04 | 59064 | 80592
9 | 17:54.43 | 1:11.23 | 80593 | 85940
10 | 19:05.66 | 1:46.69 | 85941 | 93959
11 | 20:52.60 | 1:25.22 | 93960 | 100356
12 | 22:18.07 | 1:58.16 | 100357 | 109222
13 | 24:16.23 | 3:57.73 | 109223 | 127070
14 | 28:14.21 | 1:38.54 | 127071 | 134474
15 | 29:53.00 | 3:23.51 | 134475 | 149750
16 | 33:16.51 | 5:58.70 | 149751 | 176670
17 | 39:15.46 | 1:23.35 | 176671 | 182930
18 | 40:39.06 | 1:10.58 | 182931 | 188238
19 | 41:49.64 | 2:17.74 | 188239 | 198587
20 | 44:07.63 | 1:09.58 | 198588 | 203820
21 | 45:17.46 | 0:54.18 | 203821 | 207888
22 | 46:11.64 | 1:13.44 | 207889 | 213407
23 | 47:25.33 | 2:01.56 | 213408 | 222538
24 | 49:27.14 | 3:56.48 | 222539 | 240286


Range status and errors

Selected range

Filename H:\Maurizio Pollini - Bach -The Well-Tempered Clavier, Book I (CD1).wav

Peak level 99.9 %
Range quality 100.0 %
Copy CRC C26ADBC3
Copy OK

No errors occurred


AccurateRip summary

Track 1 not present in database
Track 2 not present in database
Track 3 not present in database
Track 4 not present in database
Track 5 not present in database
Track 6 not present in database
Track 7 not present in database
Track 8 not present in database
Track 9 not present in database
Track 10 not present in database
Track 11 not present in database
Track 12 not present in database
Track 13 not present in database
Track 14 not present in database
Track 15 not present in database
Track 16 not present in database
Track 17 not present in database
Track 18 not present in database
Track 19 not present in database
Track 20 not present in database
Track 21 not present in database
Track 22 not present in database
Track 23 not present in database
Track 24 not present in database

None of the tracks are present in the AccurateRip database

End of status report

[CUETools log; Date: 26.05.2017 20:18:54; Version: 2.1.4]
[CTDB TOCID: U2J2CG5xjhy1SLuEJaOPsF38sOE-] found.
Track | CTDB Status
1 | (141/142) Accurately ripped
2 | (140/142) Accurately ripped
3 | (141/142) Accurately ripped
4 | (141/142) Accurately ripped
5 | (141/142) Accurately ripped
6 | (141/142) Accurately ripped
7 | (141/142) Accurately ripped
8 | (140/142) Accurately ripped
9 | (141/142) Accurately ripped
10 | (141/142) Accurately ripped
11 | (141/142) Accurately ripped
12 | (141/142) Accurately ripped
13 | (140/142) Accurately ripped
14 | (141/142) Accurately ripped
15 | (141/142) Accurately ripped
16 | (140/142) Accurately ripped
17 | (141/142) Accurately ripped
18 | (140/142) Accurately ripped
19 | (141/142) Accurately ripped
20 | (141/142) Accurately ripped
21 | (140/142) Accurately ripped
22 | (140/142) Accurately ripped
23 | (141/142) Accurately ripped
24 | (138/142) Accurately ripped
[AccurateRip ID: 002cd918-031559f3-7e0c8318] found.
Track [ CRC | V2 ] Status
01 [13ea9f8a|13a151f8] (048+083/131) Accurately ripped
02 [b586f878|c6c91229] (048+082/130) Accurately ripped
03 [f05c5d2f|802ff4b3] (047+084/131) Accurately ripped
04 [c22fbecc|07916b51] (047+083/130) Accurately ripped
05 [0ac11d0a|6fdcd08d] (048+083/131) Accurately ripped
06 [87cc8da0|60b5a753] (048+083/131) Accurately ripped
07 [f65f5363|ade1d2a3] (047+083/130) Accurately ripped
08 [d2085467|322fb44f] (047+082/129) Accurately ripped
09 [c75eb7c9|e029deea] (048+083/131) Accurately ripped
10 [11112602|20d10db7] (048+083/131) Accurately ripped
11 [fe49eeef|5ac14963] (046+081/127) Accurately ripped
12 [405e87e8|7f04f457] (047+083/130) Accurately ripped
13 [5c94f6cc|bd34a176] (047+083/130) Accurately ripped
14 [ea816c95|c3912011] (047+083/130) Accurately ripped
15 [a5dd3544|6afd2e2a] (048+084/132) Accurately ripped
16 [8301f542|a5b5ec5c] (048+082/130) Accurately ripped
17 [5f96ced6|3dfa0db8] (047+082/129) Accurately ripped
18 [588baa06|39806f33] (047+082/129) Accurately ripped
19 [a05d1cb6|7a1e42d3] (045+081/126) Accurately ripped
20 [f69244ae|01650f9b] (046+082/128) Accurately ripped
21 [dfbaaaff|10994c26] (047+082/129) Accurately ripped
22 [796b313a|cb68d949] (047+083/130) Accurately ripped
23 [6f8c79ae|e3efc49e] (047+082/129) Accurately ripped
24 [304336db|97b1f765] (046+082/128) Accurately ripped
Offsetted by -53:
01 [88150d18] (000/131) No match (V2 was not tested)
02 [d8ca1b50] (000/130) No match (V2 was not tested)
03 [5f8a27ae] (000/131) No match (V2 was not tested)
04 [19d1c95b] (000/130) No match (V2 was not tested)
05 [ee4eaff3] (000/131) No match (V2 was not tested)
06 [ab6b16f8] (000/131) No match (V2 was not tested)
07 [f22f482d] (000/130) No match (V2 was not tested)
08 [9d1301a4] (000/129) No match (V2 was not tested)
09 [490507f6] (000/131) No match (V2 was not tested)
10 [1939e0a8] (000/131) No match (V2 was not tested)
11 [5fd906af] (000/127) No match (V2 was not tested)
12 [bf9b74a9] (000/130) No match (V2 was not tested)
13 [829bb3ea] (000/130) No match (V2 was not tested)
14 [e94c9bb3] (000/130) No match (V2 was not tested)
15 [a9f4296c] (000/132) No match (V2 was not tested)
16 [73be79a5] (000/130) No match (V2 was not tested)
17 [c5c1b2cf] (000/129) No match (V2 was not tested)
18 [0651b578] (000/129) No match (V2 was not tested)
19 [04745f5d] (000/126) No match (V2 was not tested)
20 [712ebcd0] (000/128) No match (V2 was not tested)
21 [1915a569] (000/129) No match (V2 was not tested)
22 [0eda9cf1] (000/130) No match (V2 was not tested)
23 [6af8a4d4] (000/129) No match (V2 was not tested)
24 [774653ce] (000/128) No match (V2 was not tested)

Track Peak [ CRC32 ] [W/O NULL] [ LOG ]
– 99,9 [7F771214] [C26ADBC3] W/O NULL
01 33,6 [64D28FF5] [A93D3B23]
02 63,6 [8297EFB7] [F8A5E7AD]
03 76,3 [4848277F] [DFE13746]
04 81,2 [BB11524D] [BC2DABDD]
05 85,8 [78353B10] [8A1B172E]
06 83,7 [B74307A6] [7F90095A]
07 40,6 [27D3C2F7] [B67A70F3]
08 80,5 [E7A47995] [AEC2C713]
09 95,3 [A004BD5A] [BE30DC91]
10 99,9 [BAFA2DDC] [55130A91]
11 59,1 [B7560429] [71E2A74B]
12 48,1 [8E6D23A4] [27581632]
13 69,7 [B6E77AEE] [E3248357]
14 71,3 [8861ED55] [FA6CE609]
15 81,8 [2260A3D9] [49FC1385]
16 73,7 [07BDD9F1] [5EBB43FB]
17 31,4 [80C08F97] [14242FB2]
18 67,5 [2FA738FE] [2257009B]
19 67,7 [94BCBA6D] [CF6BD80F]
20 77,2 [9AF4C49F] [85BEEEBE]
21 80,1 [712F0DE0] [8108DA11]
22 60,6 [54DF936B] [172C762B]
23 32,3 [8E559CF7] [344ED1D1]
24 57,8 [C551C915] [117E1137]

foobar2000 1.2 / Dynamic Range Meter 1.1.1
log date: 2017-05-26 20:30:59

––––––––––––––––––––––––––––––––––––––––
Analyzed: Maurizio Pollini / Bach -The Well-Tempered Clavier, Book I (CD1)
––––––––––––––––––––––––––––––––––––––––

DR Peak RMS Duration Track
––––––––––––––––––––––––––––––––––––––––
DR10 -9.46 dB -23.90 dB 1:52 01-Praeludium I C-dur - BWV 846
DR10 -3.92 dB -17.26 dB 1:56 02-Fuga I C-dur - BWV 846
DR10 -2.34 dB -15.52 dB 1:30 03-Praeludium II c-moll - BWV 847
DR11 -1.80 dB -16.43 dB 1:40 04-Fuga II c-moll - BWV 847
DR14 -1.33 dB -19.86 dB 1:13 05-Praeludium III Cis-dur - BWV 848
DR11 -1.54 dB -16.22 dB 2:14 06-Fuga III Cis-dur - BWV 848
DR11 -7.82 dB -22.72 dB 2:43 07-Praeludium IV cis-moll - BWV 849
DR12 -1.88 dB -18.13 dB 4:47 08-Fuga IV cis-moll - BWV 849
DR12 -0.42 dB -18.04 dB 1:11 09-Praeludium V D-dur - BWV 850
DR11 -0.01 dB -17.24 dB 1:47 10-Fuga V D-dur - BWV 850
DR11 -4.56 dB -20.35 dB 1:25 11-Praeludium VI d-moll - BWV 851
DR10 -6.34 dB -18.81 dB 1:58 12-Fuga VI d-moll - BWV 851
DR11 -3.13 dB -17.85 dB 3:58 13-Praeludium VII Es-dur - BWV 852
DR10 -2.94 dB -16.07 dB 1:39 14-Fuga VII Es-dur - BWV 852
DR14 -1.74 dB -22.63 dB 3:24 15-Praeludium VIII es-moll - BWV 853
DR13 -2.64 dB -19.98 dB 5:59 16-Fuga VIII es-moll - BWV 853
DR10 -10.06 dB -24.42 dB 1:23 17-Praeludium IX E-dur - BWV 854
DR10 -3.40 dB -17.09 dB 1:11 18-Fuga IX E-dur - BWV 854
DR10 -3.38 dB -19.21 dB 2:18 19-Praeludium X e-moll - BWV 855
DR10 -2.24 dB -14.92 dB 1:10 20-Fuga X e-moll - BWV 855
DR10 -1.93 dB -16.94 dB 0:54 21-Praeludium XI F-dur - BWV 856
DR10 -4.35 dB -17.64 dB 1:14 22-Fuga XI F-dur - BWV 856
DR11 -9.81 dB -24.43 dB 2:02 23-Praeludium XII f-moll - BWV 857
DR11 -4.75 dB -20.51 dB 3:57 24-Fuga XII f-moll - BWV 857
––––––––––––––––––––––––––––––––––––––––

Number of tracks: 24
Official DR value: DR11

Samplerate: 44100 Hz
Channels: 2
Bits per sample: 16
Bitrate: 477 kbps
Codec: Monkey's Audio
================================================================================


Exact Audio Copy V0.99 prebeta 5 from 4. May 2009

EAC extraction logfile from 9. October 2009, 20:10

Maurizio Pollini / Bach -The Well-Tempered Clavier, Book I (CD2)

Used drive : PIONEER DVD-RW DVR-111D Adapter: 0 ID: 0

Read mode : Secure
Utilize accurate stream : Yes
Defeat audio cache : Yes
Make use of C2 pointers : No

Read offset correction : 48
Overread into Lead-In and Lead-Out : No
Fill up missing offset samples with silence : Yes
Delete leading and trailing silent blocks : No
Null samples used in CRC calculations : No
Used interface : Native Win32 interface for Win NT & 2000

Used output format : Internal WAV Routines
Sample format : 44.100 Hz; 16 Bit; Stereo


TOC of the extracted CD

Track | Start | Length | Start sector | End sector
––––––––––––––––––––––––––––-
1 | 0:00.00 | 1:15.10 | 0 | 5634
2 | 1:15.10 | 1:51.39 | 5635 | 13998
3 | 3:06.49 | 1:03.33 | 13999 | 18756
4 | 4:10.07 | 3:28.09 | 18757 | 34365
5 | 7:38.16 | 0:56.24 | 34366 | 38589
6 | 8:34.40 | 2:51.60 | 38590 | 51474
7 | 11:26.25 | 1:59.70 | 51475 | 60469
8 | 13:26.20 | 2:19.06 | 60470 | 70900
9 | 15:45.26 | 1:32.53 | 70901 | 77853
10 | 17:18.04 | 2:20.47 | 77854 | 88400
11 | 19:38.51 | 1:33.07 | 88401 | 95382
12 | 21:11.58 | 2:36.02 | 95383 | 107084
13 | 23:47.60 | 1:13.56 | 107085 | 112615
14 | 25:01.41 | 2:18.29 | 112616 | 122994
15 | 27:19.70 | 1:02.10 | 122995 | 127654
16 | 28:22.05 | 3:46.58 | 127655 | 144662
17 | 32:08.63 | 1:10.70 | 144663 | 149982
18 | 33:19.58 | 1:32.22 | 149983 | 156904
19 | 34:52.05 | 3:00.35 | 156905 | 170439
20 | 37:52.40 | 3:32.57 | 170440 | 186396
21 | 41:25.22 | 1:19.06 | 186397 | 192327
22 | 42:44.28 | 2:05.28 | 192328 | 201730
23 | 44:49.56 | 5:07.47 | 201731 | 224802
24 | 49:57.28 | 7:03.27 | 224803 | 256554


Range status and errors

Selected range

Filename H:\Maurizio Pollini - Bach -The Well-Tempered Clavier, Book I (CD2).wav

Peak level 100.0 %
Range quality 100.0 %
Copy CRC 3C53D29F
Copy OK

No errors occurred


AccurateRip summary

Track 1 not present in database
Track 2 not present in database
Track 3 not present in database
Track 4 not present in database
Track 5 not present in database
Track 6 not present in database
Track 7 not present in database
Track 8 not present in database
Track 9 not present in database
Track 10 not present in database
Track 11 not present in database
Track 12 not present in database
Track 13 not present in database
Track 14 not present in database
Track 15 not present in database
Track 16 not present in database
Track 17 not present in database
Track 18 not present in database
Track 19 not present in database
Track 20 not present in database
Track 21 not present in database
Track 22 not present in database
Track 23 not present in database
Track 24 not present in database

None of the tracks are present in the AccurateRip database

End of status report

[CUETools log; Date: 26.05.2017 20:19:50; Version: 2.1.4]
[CTDB TOCID: beHlZ2NQMk5WTpJrBbN4KlaBzAg-] found.
Track | CTDB Status
1 | (138/139) Accurately ripped
2 | (138/139) Accurately ripped
3 | (138/139) Accurately ripped
4 | (138/139) Accurately ripped
5 | (138/139) Accurately ripped
6 | (137/139) Accurately ripped
7 | (138/139) Accurately ripped
8 | (136/139) Accurately ripped, or (2/139) differs in 173 samples @01:59:65
9 | (138/139) Accurately ripped
10 | (138/139) Accurately ripped
11 | (138/139) Accurately ripped
12 | (138/139) Accurately ripped
13 | (136/139) Accurately ripped
14 | (138/139) Accurately ripped
15 | (138/139) Accurately ripped
16 | (137/139) Accurately ripped
17 | (138/139) Accurately ripped
18 | (137/139) Accurately ripped
19 | (137/139) Accurately ripped
20 | (135/139) Accurately ripped
21 | (138/139) Accurately ripped
22 | (137/139) Accurately ripped
23 | (138/139) Accurately ripped
24 | (137/139) Accurately ripped
[AccurateRip ID: 002959e3-02db0896-4d0d5c18] found.
Track [ CRC | V2 ] Status
01 [5b3c46ae|b4c88c73] (045+083/128) Accurately ripped
02 [eeee9852|68be52ee] (045+083/128) Accurately ripped
03 [dc624a24|347a7534] (045+083/128) Accurately ripped
04 [340b1b94|2ee88bb5] (045+083/128) Accurately ripped
05 [423a30da|97d6c76c] (045+083/128) Accurately ripped
06 [b224675a|5e75d81f] (045+083/128) Accurately ripped
07 [e29b9c7f|bf850863] (045+083/128) Accurately ripped
08 [344d6352|219580ed] (045+082/127) Accurately ripped
09 [1a358f5c|9129fc48] (045+083/128) Accurately ripped
10 [5cec8992|f547553b] (045+083/128) Accurately ripped
11 [aee8939a|e8db23a0] (045+083/128) Accurately ripped
12 [7421de8e|6eacfb90] (043+082/125) Accurately ripped
13 [0320fe30|f11f9ee4] (045+083/128) Accurately ripped
14 [1eb15bde|ca0bb545] (045+082/127) Accurately ripped
15 [4071e6a0|a13738e3] (045+083/128) Accurately ripped
16 [17783bfb|6aec0789] (045+083/128) Accurately ripped
17 [beb5ada1|681207d6] (045+083/128) Accurately ripped
18 [392eb2ad|a8996f34] (045+083/128) Accurately ripped
19 [2a575db3|c6d2197c] (045+083/128) Accurately ripped
20 [cc617e2e|1499a145] (045+083/128) Accurately ripped
21 [b9701d30|78f77e23] (045+082/127) Accurately ripped
22 [9158310e|a3aae9df] (045+083/128) Accurately ripped
23 [fc73f0fa|bcf16c65] (045+083/128) Accurately ripped
24 [fe9f31e0|1cd3867a] (042+082/126) Accurately ripped
Offsetted by -53:
01 [79814b2a] (000/128) No match (V2 was not tested)
02 [025a4967] (000/128) No match (V2 was not tested)
03 [ce04d916] (000/128) No match (V2 was not tested)
04 [2ea95d28] (000/128) No match (V2 was not tested)
05 [83299bbc] (000/128) No match (V2 was not tested)
06 [2f9b7fba] (000/128) No match (V2 was not tested)
07 [f4727cc2] (000/128) No match (V2 was not tested)
08 [9ce90c2b] (000/127) No match (V2 was not tested)
09 [193df912] (000/128) No match (V2 was not tested)
10 [c464b89f] (000/128) No match (V2 was not tested)
11 [19ec5362] (000/128) No match (V2 was not tested)
12 [e5edafc8] (000/125) No match (V2 was not tested)
13 [4b4ce996] (000/128) No match (V2 was not tested)
14 [bdb639ae] (000/127) No match (V2 was not tested)
15 [a4acd505] (000/128) No match (V2 was not tested)
16 [52375968] (000/128) No match (V2 was not tested)
17 [9a33a6d0] (000/128) No match (V2 was not tested)
18 [a5431c73] (000/128) No match (V2 was not tested)
19 [527f5602] (000/128) No match (V2 was not tested)
20 [497ec92f] (000/128) No match (V2 was not tested)
21 [6d316586] (000/127) No match (V2 was not tested)
22 [605f181f] (000/128) No match (V2 was not tested)
23 [eec1347d] (000/128) No match (V2 was not tested)
24 [80a07cae] (000/126) No match (V2 was not tested)

Track Peak [ CRC32 ] [W/O NULL] [ LOG ]
– 100,0 [F6CDE81B] [3C53D29F] W/O NULL
01 41,5 [85077B45] [3D56E335]
02 50,5 [FD1B4179] [AE875047]
03 70,7 [519664C4] [42357822]
04 49,6 [AFBD6CC2] [39088F8F]
05 71,9 [9B5AAF4F] [4CCF6423]
06 68,3 [C6134CA6] [76FDD4F3]
07 29,4 [5FE4FF40] [1974CAFA]
08 78,4 [0F989684] [08C5436A]
09 58,9 [4905B5AB] [2ECD347C]
10 53,0 [22106B59] [84C9FFED]
11 40,6 [D5ABBF02] [D1C2619F]
12 56,0 [DD08CE97] [6319BBD0]
13 44,3 [5DF04776] [9EF4857E]
14 40,8 [9D574ABE] [E1D26EA2]
15 81,2 [D3F8A9B3] [5CEF6765]
16 100,0 [8244897B] [F37A47BD]
17 97,1 [D7D10625] [9D846FE4]
18 63,0 [E94C933A] [9E3EDD9F]
19 57,2 [62766F8C] [E28F34E2]
20 57,0 [C2D5633A] [4D9A6F9D]
21 30,4 [6FC4CEF7] [5006BD5C]
22 77,8 [2539105A] [6FB5886E]
23 26,4 [9F523066] [448DED5E]
24 82,0 [2FFF1B7E] [A791387A]

foobar2000 1.2 / Dynamic Range Meter 1.1.1
log date: 2017-05-26 20:32:04

––––––––––––––––––––––––––––––––––––––––
Analyzed: Maurizio Pollini / Bach -The Well-Tempered Clavier, Book I (CD2)
––––––––––––––––––––––––––––––––––––––––

DR Peak RMS Duration Track
––––––––––––––––––––––––––––––––––––––––
DR11 -7.63 dB -21.97 dB 1:15 01-Praeludium XIII Fis-dur - BWV 858
DR10 -5.93 dB -20.70 dB 1:52 02-Fuga XIII Fis-dur - BWV 858
DR10 -3.01 dB -15.76 dB 1:03 03-Praeludium XIV fis-moll - BWV 859
DR12 -6.09 dB -22.37 dB 3:28 04-Fuga XIV fis-moll - BWV 859
DR10 -2.86 dB -15.55 dB 0:56 05-Praeludium XV G-dur - BWV 860
DR11 -3.31 dB -16.26 dB 2:52 06-Fuga XV G-dur - BWV 860
DR11 -10.62 dB -25.01 dB 2:00 07-Praeludium XVI g-moll - BWV 861
DR12 -2.10 dB -19.32 dB 2:19 08-Fuga XVI g-moll - BWV 861
DR10 -4.59 dB -18.01 dB 1:33 09-Praeludium XVII As-dur - BWV 862
DR11 -5.51 dB -19.82 dB 2:21 10-Fuga XVII As-dur - BWV 862
DR11 -7.82 dB -22.25 dB 1:33 11-Praeludium XVIII gis-moll - BWV 863
DR12 -5.03 dB -20.97 dB 2:36 12-Fuga XVIII gis-moll - BWV 863
DR10 -7.06 dB -21.41 dB 1:14 13-Praeludium XIX A-dur - BWV 864
DR11 -7.77 dB -20.66 dB 2:18 14-Fuga XIX A-dur - BWV 864
DR11 -1.81 dB -15.32 dB 1:02 15-Praeludium XX a-moll - BWV 865
DR12 0.00 dB -15.00 dB 3:47 16-Fuga XX a-moll - BWV 865
DR13 -0.25 dB -17.13 dB 1:11 17-Praeludium XXI B-dur - BWV 866
DR11 -4.00 dB -17.87 dB 1:32 18-Fuga XXI B-dur - BWV 866
DR14 -4.84 dB -24.63 dB 3:00 19-Praeludium XXII b-moll - BWV 867
DR13 -4.88 dB -22.01 dB 3:33 20-Fuga XXII b-moll - BWV 867
DR10 -10.32 dB -23.34 dB 1:19 21-Praeludium XXIII H-dur - BWV 868
DR11 -2.17 dB -18.22 dB 2:05 22-Fuga XXIII H-dur - BWV 868
DR11 -11.54 dB -25.16 dB 5:08 23-Praeludium XXIV h-moll - BWV 869
DR13 -1.72 dB -19.07 dB 7:03 24-Fuga XXIV h-moll - BWV 869
––––––––––––––––––––––––––––––––––––––––

Number of tracks: 24
Official DR value: DR11

Samplerate: 44100 Hz
Channels: 2
Bits per sample: 16
Bitrate: 464 kbps
Codec: Monkey's Audio
================================================================================

Maurizio Pollini - Johann Sebastian Bach: The Well-Tempered Clavier, Book 1 (2009) 2CDs [Re-Up]

Maurizio Pollini - Johann Sebastian Bach: The Well-Tempered Clavier, Book 1 (2009) 2CDs [Re-Up]

All thanks to original releaser

More Johann Sebastian Bach music in My Blog