Tags
Language
Tags

Meena - Try Me (2010)

Posted By: popsakov
Meena - Try Me (2010)

Meena - Try Me (2010)
EAC Rip | FLAC (Img) + Cue + Log ~ 391 Mb | MP3 CBR320 ~ 143 Mb
Full Scans | 00:57:33 | RAR 5% Recovery
Blues, Blues Rock | Ruf Records #RUF 1156

Impressive debut recording. Meena hails from Austria. She sings without any accent. She's got plenty of feeling in her singing, she can wail, she can shout and whisper. Meena's onstage power and authentic voice have aroused interest in blues aficionados around the globe. Her approach to music is something special, powered by her desire to deliver her art. Excellent. The recordings were supervised by Jim Gaines in Memphis. Special guests: Joanne Shaw Taylor, Eric Sardinas, Erja Lyytinen, Coco Montoya, etc.

Producer legend Jim Gaines (Stevie Ray Vaughan, John Lee Hooker, Santana,…) once praised Meena Cryle as „one of the best singers I`ve worked with in 20 years. She is what we call in the business an `old soul`. She`s got the voice and she`s got the passion…“

I started singing at the age of three, learned playin´ guitar when I was eight and I wrote my first songs when I was ten. When I was sixteen I left home, I took my guitar and travelled around the world and played my songs at the Lake Michigan in Illinois, in the train through Greece, in the streets of Chimoio Mosambik, in the lanes of Mexico City, in the center of New Dheli, down south in Sicily Italy and back home on top of the Austrian mountains. Freedom for me is not just a word, it´s a gift which comes to you when you are willing to leave your ego and your comfort zone behind – and so I did. The great thing about music for me is the mergence between musician and audience, it´s a sensitiv thing going on when a tone, wether it´s sung or played, connects a group of people and creates one big bullet of energy. The closest way to be with someone is singing a song or dance with somebody. So every concert, every evening is challenging me trying to explain myself and get my inside out, hoping somebody is feeling the same I do, because then we both know, we´re not alone.

***************

Meena - Try Me (2010)

Track List:

01. Try Me [0:04:59.41]
02. Nothing Left [0:05:12.50]
03. Send Me A Doctor [0:04:07.34]
04. Put Your Hands Out Of My Pocket [0:05:30.06]
05. Sorry [0:04:13.56]
06. I'm Leaving You [0:03:54.28]
07. This Song Is For You [0:05:20.28]
08. I'd Rather Go Blind [0:06:36.41]
09. Love Won't Fall Apart [0:03:32.72]
10. Let Your Sweet Love Shine On Me [0:03:08.22]
11. I Shoot You Down [0:04:34.76]
12. Just As I Am [0:06:23.94]

Exact Audio Copy V0.99 prebeta 4 from 23. January 2008

Отчёт EAC об извлечении, выполненном 25. марта 2010, 13:12

Meena / Try Me

Дисковод: PLEXTOR DVDR PX-820A Adapter: 3 ID: 1

Режим чтения : Достоверность
Использование точного потока : Да
Отключение кэша аудио : Да
Использование указателей C2 : Нет

Коррекция смещения при чтении : 48
Способность читать области Lead-in и Lead-out : Нет
Заполнение пропущенных сэмплов тишиной : Да
Удаление блоков с тишиной в начале и конце : Нет
При вычислениях CRC использовались нулевые сэмплы : Да
Интерфейс : Встроенный Win32-интерфейс для Win NT/2000

Выходной формат : Внутренние WAV-операции
Формат сэмплов : 44.100 Гц; 16 бит; стерео


TOC извлечённого CD

Трек | Старт | Длительность | Начальный сектор | Конечный сектор
––––––––––––––––––––––––––––––––––-
1 | 0:00.00 | 4:59.31 | 0 | 22455
2 | 4:59.31 | 5:12.38 | 22456 | 45893
3 | 10:11.69 | 4:07.26 | 45894 | 64444
4 | 14:19.20 | 5:30.05 | 64445 | 89199
5 | 19:49.25 | 4:13.42 | 89200 | 108216
6 | 24:02.67 | 3:54.21 | 108217 | 125787
7 | 27:57.13 | 5:20.21 | 125788 | 149808
8 | 33:17.34 | 6:36.31 | 149809 | 179539
9 | 39:53.65 | 3:32.54 | 179540 | 195493
10 | 43:26.44 | 3:08.17 | 195494 | 209610
11 | 46:34.61 | 4:34.57 | 209611 | 230217
12 | 51:09.43 | 6:23.71 | 230218 | 259013


Характеристики диапазона извлечения и сообщения об ошибках

Выбранный диапазон

Имя файла D:\КОЛЛЕКЦИЯ 3\MEENA\Meena - Try Me.wav

Пиковый уровень 98.8 %
Качество диапазона 100.0 %
CRC копии F5ADC11A
Копирование… OK

Ошибок не произошло


AccurateRip: сводка

Трек 1 нет в базе данных
Трек 2 нет в базе данных
Трек 3 нет в базе данных
Трек 4 нет в базе данных
Трек 5 нет в базе данных
Трек 6 нет в базе данных
Трек 7 нет в базе данных
Трек 8 нет в базе данных
Трек 9 нет в базе данных
Трек 10 нет в базе данных
Трек 11 нет в базе данных
Трек 12 нет в базе данных

Ни одного трека нет в базе AccurateRip

Конец отчёта

[CUETools log; Date: 06.07.2017 14:06:02; Version: 2.1.5]
[CTDB TOCID: bP5AKzJEphtZtQ_DRINWP7JqsOI-] found.
Track | CTDB Status
1 | (19/19) Accurately ripped
2 | (19/19) Accurately ripped
3 | (19/19) Accurately ripped
4 | (19/19) Accurately ripped
5 | (19/19) Accurately ripped
6 | (19/19) Accurately ripped
7 | (19/19) Accurately ripped
8 | (19/19) Accurately ripped
9 | (19/19) Accurately ripped
10 | (19/19) Accurately ripped
11 | (19/19) Accurately ripped
12 | (19/19) Accurately ripped
[AccurateRip ID: 0019a146-00ee5b78-b10d7d0c] found.
Track [ CRC | V2 ] Status
01 [e04bd31e|6cdc1ccb] (08+23/31) Accurately ripped
02 [48d1c85d|dcc3ac22] (08+22/30) Accurately ripped
03 [2eaf41f1|0b907d2f] (08+22/30) Accurately ripped
04 [92c35304|61593970] (08+23/31) Accurately ripped
05 [dae67c87|1ad7dc97] (08+23/31) Accurately ripped
06 [cbc21bfb|bd203283] (08+22/30) Accurately ripped
07 [36c2f01a|0a1a0914] (08+23/31) Accurately ripped
08 [81cf5592|9d5ce03b] (08+23/31) Accurately ripped
09 [bb7c29f5|ba33d2f0] (08+21/29) Accurately ripped
10 [121ba665|10b463b0] (08+21/29) Accurately ripped
11 [61357614|b1608f85] (08+21/29) Accurately ripped
12 [ac29886d|08057cbc] (08+21/29) Accurately ripped

Track Peak [ CRC32 ] [W/O NULL] [ LOG ]
– 98,8 [F5ADC11A] [AA49092B] CRC32
01 98,8 [4291F8C9] [C51F06D1]
02 98,8 [8BD28E7A] [4768C478]
03 98,8 [245D8065] [0AEE7E99]
04 98,8 [28369454] [CAC95CF8]
05 98,8 [390293CB] [E188B669]
06 98,8 [30C1A1A6] [7012D45A]
07 98,8 [0E0B8DCC] [F7B801D6]
08 98,8 [DE7E3E0F] [469D4252]
09 98,8 [89F3EAAA] [79A7B253]
10 98,8 [7D5AA807] [80B80055]
11 98,8 [795183EB] [BBD4B326]
12 98,8 [11D2A097] [56924762]

Meena - Try Me (2010)


All thanks go to ЗУБ2007

>>> My Blog <<<

DOWNLOAD: