Tags
Language
Tags

Metallica: The Metallica Club Releases (1995 - 2006)

Posted By:
Metallica: The Metallica Club Releases (1995 - 2006)

Metallica: The Metallica Club Releases (1995 - 2006)
EAC | Flac(Image) + Cue + Log & MP3 CBR 320Kbps
6CD | The Metallica Club | ~ or Mb | Artwork(jpg) -> Mb
Thrash Metal

~ Metallica FanCan 1~5 + The Garage Remains The Same ~

Metallica: The Metallica Club Releases (1995 - 2006):

Metallica: The Metallica Club Releases (1995 - 2006)

Tracklist CD1 - 1996 - FanCan 1 (USA The Metallica Club FC-001):

1.______ (3:13)
2.______ (3:17)
3.______ (7:16)
4.______ (4:37)
5.______ (8:41)
6.______ (4:22)
7.______ (4:07)
8.______ (4:32)
9.______ (2:06)
10.______ (6:09)
11.______ (6:31)
12.______ (6:15)

All tracks untitled

Exact Audio Copy V0.99 prebeta 5 from 4. May 2009

EAC extraction logfile from 29. August 2012, 2:03

Metallica / Fan Can #1 (FC-001)

Used drive : PIONEER DVD-RW DVR-215 Adapter: 5 ID: 0

Read mode : Secure
Utilize accurate stream : Yes
Defeat audio cache : Yes
Make use of C2 pointers : No

Read offset correction : 48
Overread into Lead-In and Lead-Out : No
Fill up missing offset samples with silence : Yes
Delete leading and trailing silent blocks : No
Null samples used in CRC calculations : Yes
Used interface : Native Win32 interface for Win NT & 2000

Used output format : User Defined Encoder
Selected bitrate : 1024 kBit/s
Quality : High
Add ID3 tag : No
Command line compressor : C:\Program Files (x86)\Exact Audio Copy\Flac\flac.exe
Additional command line options : -8 -V %s


TOC of the extracted CD

Track | Start | Length | Start sector | End sector
––––––––––––––––––––––––––––-
1 | 0:00.32 | 3:12.55 | 32 | 14486
2 | 3:13.12 | 3:17.08 | 14487 | 29269
3 | 6:30.20 | 7:16.35 | 29270 | 62004
4 | 13:46.55 | 4:37.25 | 62005 | 82804
5 | 18:24.05 | 8:40.45 | 82805 | 121849
6 | 27:04.50 | 4:22.37 | 121850 | 141536
7 | 31:27.12 | 4:07.03 | 141537 | 160064
8 | 35:34.15 | 4:32.17 | 160065 | 180481
9 | 40:06.32 | 2:05.58 | 180482 | 189914
10 | 42:12.15 | 6:08.50 | 189915 | 217564
11 | 48:20.65 | 6:30.70 | 217565 | 246884
12 | 54:51.60 | 6:14.67 | 246885 | 275001


Range status and errors

Selected range

Filename E:\bki71\Metallica\Metallica - Fan Can #1 (FC-001).wav

Peak level 100.0 %
Range quality 100.0 %
Test CRC 6992CD24
Copy CRC 6992CD24
Copy OK

No errors occurred


AccurateRip summary

Track 1 accurately ripped (confidence 4) [0F296994]
Track 2 accurately ripped (confidence 4) [D47A3D76]
Track 3 accurately ripped (confidence 4) [3338DE90]
Track 4 accurately ripped (confidence 4) [0A0832CE]
Track 5 accurately ripped (confidence 4) [BEF511B4]
Track 6 accurately ripped (confidence 4) [A584C109]
Track 7 accurately ripped (confidence 4) [D174681B]
Track 8 accurately ripped (confidence 4) [319B2F1C]
Track 9 accurately ripped (confidence 4) [2106CBB7]
Track 10 accurately ripped (confidence 4) [911B13FF]
Track 11 accurately ripped (confidence 4) [25114FD4]
Track 12 accurately ripped (confidence 4) [B3D1906B]

All tracks accurately ripped

End of status report


[CUETools log; Date: 23.04.2019 6:51:23; Version: 2.1.4]
Pregap length 00:00:32.
[AccurateRip ID: 001a462c-00f7bc45-a80e520c] found.
Track [ CRC | V2 ] Status
01 [0f296994|5aed8978] (5+3/8) Accurately ripped
02 [d47a3d76|940d84c7] (5+3/8) Accurately ripped
03 [3338de90|c98f7740] (5+3/8) Accurately ripped
04 [0a0832ce|9576964b] (5+3/8) Accurately ripped
05 [bef511b4|41572605] (5+3/8) Accurately ripped
06 [a584c109|6f0df343] (5+3/8) Accurately ripped
07 [d174681b|c76951ba] (5+3/8) Accurately ripped
08 [319b2f1c|c50ca997] (5+3/8) Accurately ripped
09 [2106cbb7|5b4818a4] (5+3/8) Accurately ripped
10 [911b13ff|a1b6070f] (5+3/8) Accurately ripped
11 [25114fd4|9760dbc2] (5+3/8) Accurately ripped
12 [b3d1906b|602f8fb4] (5+3/8) Accurately ripped

Track Peak [ CRC32 ] [W/O NULL] [ LOG ]
– 99,9 [6992CD24] [6DEB1856] CRC32
01 99,9 [E8167CAD] [D33E79B4]
02 99,9 [F2E64C3E] [BB5366C6]
03 99,9 [F2E478BD] [1DFC5B92]
04 99,9 [A764F57C] [619BD4D8]
05 99,9 [B4E6BBB2] [34B905CA]
06 99,9 [58A39131] [10F8CF77]
07 99,9 [A63942B6] [D79C176D]
08 99,9 [D641EA53] [F7EA5125]
09 99,9 [5E332BB6] [53BF2223]
10 99,9 [DF7DDA06] [F719ED37]
11 99,9 [E57AD9D9] [064E0F45]
12 99,9 [DBD959A8] [921A34F6]


Metallica: The Metallica Club Releases (1995 - 2006)

Tracklist CD2 - 1997 - FanCan 2 (USA The Metallica Club FC-002):

01. Fade To Black (8:46)
02. King Nothing (7:19)
03. One (7:56)
04. Wherever I May Roam (7:17)
05. Nothing Else Matters (6:03)
06. Last Caress (2:00)
07. Master Of Puppets (4:00)
08. Overkill (4:55)
09. Motorbreath (5:23)

Recoded live at Slim's in San Francisco.CA on June 10.1996

Exact Audio Copy V0.99 prebeta 5 from 4. May 2009

EAC extraction logfile from 29. August 2012, 2:23

Metallica / Fan Can #2 (FC-002)

Used drive : PIONEER DVD-RW DVR-215 Adapter: 5 ID: 0

Read mode : Secure
Utilize accurate stream : Yes
Defeat audio cache : Yes
Make use of C2 pointers : No

Read offset correction : 48
Overread into Lead-In and Lead-Out : No
Fill up missing offset samples with silence : Yes
Delete leading and trailing silent blocks : No
Null samples used in CRC calculations : Yes
Used interface : Native Win32 interface for Win NT & 2000

Used output format : User Defined Encoder
Selected bitrate : 1024 kBit/s
Quality : High
Add ID3 tag : No
Command line compressor : C:\Program Files (x86)\Exact Audio Copy\Flac\flac.exe
Additional command line options : -8 -V %s


TOC of the extracted CD

Track | Start | Length | Start sector | End sector
––––––––––––––––––––––––––––-
1 | 0:00.32 | 8:46.20 | 32 | 39501
2 | 8:46.52 | 7:18.63 | 39502 | 72414
3 | 16:05.40 | 7:55.72 | 72415 | 108111
4 | 24:01.37 | 7:16.70 | 108112 | 140881
5 | 31:18.32 | 6:03.13 | 140882 | 168119
6 | 37:21.45 | 2:00.10 | 168120 | 177129
7 | 39:21.55 | 4:00.12 | 177130 | 195141
8 | 43:21.67 | 4:54.68 | 195142 | 217259
9 | 48:16.60 | 5:22.62 | 217260 | 241471


Range status and errors

Selected range

Filename E:\bki71\Metallica\Metallica - Fan Can #2 (FC-002).wav

Peak level 100.0 %
Range quality 100.0 %
Test CRC 3CFDC2A6
Copy CRC 3CFDC2A6
Copy OK

No errors occurred


AccurateRip summary

Track 1 accurately ripped (confidence 4) [7B35946F]
Track 2 accurately ripped (confidence 4) [E66130F5]
Track 3 accurately ripped (confidence 4) [D4C82CC5]
Track 4 accurately ripped (confidence 4) [E158144E]
Track 5 accurately ripped (confidence 4) [99A286A9]
Track 6 accurately ripped (confidence 4) [C4CAB395]
Track 7 accurately ripped (confidence 4) [1E08490E]
Track 8 accurately ripped (confidence 4) [1FA343C5]
Track 9 accurately ripped (confidence 4) [567BBE68]

All tracks accurately ripped

End of status report


[CUETools log; Date: 23.04.2019 6:54:02; Version: 2.1.4]
Pregap length 00:00:32.
[AccurateRip ID: 0014c0c3-0092aea5-830c9309] found.
Track [ CRC | V2 ] Status
01 [7b35946f|161463d7] (05+03/10) Accurately ripped
02 [e66130f5|66d2a129] (05+03/10) Accurately ripped
03 [d4c82cc5|a2348eed] (05+03/10) Accurately ripped
04 [e158144e|640b15b8] (05+03/10) Accurately ripped
05 [99a286a9|aa5edb7c] (05+03/10) Accurately ripped
06 [c4cab395|dab1a644] (05+03/10) Accurately ripped
07 [1e08490e|99c4e018] (05+03/10) Accurately ripped
08 [1fa343c5|934a9383] (05+03/10) Accurately ripped
09 [567bbe68|ff2754c9] (05+03/10) Accurately ripped
Offsetted by -831:
01 [3c630658] (00/10) No match (V2 was not tested)
02 [f321bed9] (00/10) No match (V2 was not tested)
03 [b9ed28e9] (00/10) No match (V2 was not tested)
04 [f5ac159f] (00/10) No match (V2 was not tested)
05 [399b885e] (00/10) No match (V2 was not tested)
06 [bbdaff37] (00/10) No match (V2 was not tested)
07 [91a274e3] (00/10) No match (V2 was not tested)
08 [7c9a506d] (00/10) No match (V2 was not tested)
09 [ea279b2a] (00/10) No match (V2 was not tested)

Track Peak [ CRC32 ] [W/O NULL] [ LOG ]
– 99,9 [3CFDC2A6] [ACC489B0] CRC32
01 99,9 [9CD7C2E5] [A0E00289]
02 99,9 [5C88A2B1] [108F104F]
03 99,9 [93BFD391] [B3B7E2D8]
04 99,9 [63E8A7E7] [44EA6447]
05 99,9 [C7F2A978] [189BB062]
06 99,9 [9DE347DE] [FD89EE11]
07 99,9 [BF955DA1] [55B35D6E]
08 99,9 [777CDE30] [560E2B14]
09 99,9 [9E76C5D3] [AB214B38]


Metallica: The Metallica Club Releases (1995 - 2006)

Tracklist CD3 - 1997 - FanCan (USA The Metallica Club FC-003):

01. Load
02. Devil Dance
03. Streamline
04. Bleeding Me
05. Bitch
06. Fixer
07. Mine Eyes
08. Skimpy
09. Unforgiven II
10. Outlaw
11. Memory
12. Fuel

Exact Audio Copy V0.99 prebeta 5 from 4. May 2009

EAC extraction logfile from 11. March 2010, 18:15

Metallica / Overload - Mucho Demo (Load - ReLoad Demos)

Used drive : SONY CD-RW CRX300E Adapter: 1 ID: 0

Read mode : Secure
Utilize accurate stream : Yes
Defeat audio cache : Yes
Make use of C2 pointers : No

Read offset correction : 6
Overread into Lead-In and Lead-Out : No
Fill up missing offset samples with silence : Yes
Delete leading and trailing silent blocks : No
Null samples used in CRC calculations : Yes
Used interface : Installed external ASPI interface

Used output format : User Defined Encoder
Selected bitrate : 1024 kBit/s
Quality : High
Add ID3 tag : No
Command line compressor : C:\Program Files\Exact Audio Copy\FLAC\FLAC.EXE
Additional command line options : -8 -V %s


TOC of the extracted CD

Track | Start | Length | Start sector | End sector
––––––––––––––––––––––––––––-
1 | 0:00.32 | 5:50.05 | 32 | 26286
2 | 5:50.37 | 4:46.38 | 26287 | 47774
3 | 10:37.00 | 4:20.12 | 47775 | 67286
4 | 14:57.12 | 8:36.70 | 67287 | 106056
5 | 23:34.07 | 5:31.43 | 106057 | 130924
6 | 29:05.50 | 5:57.02 | 130925 | 157701
7 | 35:02.52 | 7:58.48 | 157702 | 193599
8 | 43:01.25 | 6:24.67 | 193600 | 222466
9 | 49:26.17 | 7:14.50 | 222467 | 255066
10 | 56:40.67 | 9:18.55 | 255067 | 296971
11 | 65:59.47 | 6:44.28 | 296972 | 327299
12 | 72:44.00 | 4:25.17 | 327300 | 347191


Range status and errors

Selected range

Filename C:\Temp\Metallica - Overload - Mucho Demo (Load - ReLoad Demos).wav

Peak level 100.0 %
Range quality 100.0 %
Test CRC 6C572C72
Copy CRC 6C572C72
Copy OK

No errors occurred


AccurateRip summary

Track 1 accurately ripped (confidence 4) [021820E3]
Track 2 accurately ripped (confidence 4) [CDB1DE81]
Track 3 accurately ripped (confidence 4) [89F949A5]
Track 4 accurately ripped (confidence 4) [8FBFDE48]
Track 5 accurately ripped (confidence 4) [EE4B86A8]
Track 6 accurately ripped (confidence 4) [2734FD62]
Track 7 accurately ripped (confidence 4) [EC276DB0]
Track 8 accurately ripped (confidence 4) [3F1A88B6]
Track 9 accurately ripped (confidence 4) [B188C759]
Track 10 accurately ripped (confidence 4) [890DFB39]
Track 11 accurately ripped (confidence 4) [3379B395]
Track 12 accurately ripped (confidence 4) [76B34AE0]

All tracks accurately ripped

End of status report


[CUETools log; Date: 23.04.2019 8:26:09; Version: 2.1.4]
Pregap length 00:00:32.
[AccurateRip ID: 00213e67-013bc511-b812150c] found.
Track [ CRC | V2 ] Status
01 [021820e3|75d7023e] (4+3/7) Accurately ripped
02 [cdb1de81|608c4601] (4+3/7) Accurately ripped
03 [89f949a5|30225cc7] (4+3/7) Accurately ripped
04 [8fbfde48|fd001926] (4+3/7) Accurately ripped
05 [ee4b86a8|d387a9f9] (4+3/7) Accurately ripped
06 [2734fd62|234dc916] (4+3/7) Accurately ripped
07 [ec276db0|c8400819] (4+3/7) Accurately ripped
08 [3f1a88b6|fd2d34d1] (4+3/7) Accurately ripped
09 [b188c759|34738327] (4+3/7) Accurately ripped
10 [890dfb39|9b4d9a32] (4+3/7) Accurately ripped
11 [3379b395|cb4df68b] (4+3/7) Accurately ripped
12 [76b34ae0|4640fd51] (4+3/7) Accurately ripped

Track Peak [ CRC32 ] [W/O NULL] [ LOG ]
– 99,9 [6C572C72] [7A39CABF] CRC32
01 99,9 [A6990C47] [8560083A]
02 99,9 [8FF342FF] [790D3A6E]
03 99,9 [4E4AFF3F] [852FB84A]
04 99,9 [7E6ED292] [A15461F9]
05 99,9 [B19A70FE] [96B16C85]
06 99,9 [BDE74956] [B20131FB]
07 99,9 [B24035CF] [144CEF99]
08 99,9 [0F5C39C0] [8D433C56]
09 99,9 [6669F9B1] [C9426E00]
10 99,9 [52029818] [CA2DFAB7]
11 99,9 [632F1C09] [4ACEF111]
12 99,9 [0D82D908] [DC1E9875]


Metallica: The Metallica Club Releases (1995 - 2006)

Tracklist CD4 - 2000 - The Garage Remains The Same (USA Metallica Club MCP 001):

01. Breadfan (4:09)
02. Master Of Puppets (8:57)
03. Fuel (5:27)
04. Bleeding Me (8:58)
05. King Nothing (7:30)
06. Fight Fire With Fire (5:54)

Exact Audio Copy V0.99 prebeta 5 from 4. May 2009

EAC extraction logfile from 28. October 2011, 10:15

Metallica / The Garage Remains The Same (MCP 001)

Used drive : PIONEER DVD-RW DVR-215 Adapter: 5 ID: 0

Read mode : Secure
Utilize accurate stream : Yes
Defeat audio cache : Yes
Make use of C2 pointers : No

Read offset correction : 48
Overread into Lead-In and Lead-Out : No
Fill up missing offset samples with silence : Yes
Delete leading and trailing silent blocks : No
Null samples used in CRC calculations : Yes
Used interface : Native Win32 interface for Win NT & 2000

Used output format : User Defined Encoder
Selected bitrate : 1024 kBit/s
Quality : High
Add ID3 tag : No
Command line compressor : C:\Program Files (x86)\Exact Audio Copy\Flac\flac.exe
Additional command line options : -8 -V %s


TOC of the extracted CD

Track | Start | Length | Start sector | End sector
––––––––––––––––––––––––––––-
1 | 0:00.32 | 4:08.60 | 32 | 18691
2 | 4:09.17 | 8:57.10 | 18692 | 58976
3 | 13:06.27 | 5:27.03 | 58977 | 83504
4 | 18:33.30 | 8:57.72 | 83505 | 123851
5 | 27:31.27 | 7:30.28 | 123852 | 157629
6 | 35:01.55 | 5:54.17 | 157630 | 184196


Range status and errors

Selected range

Filename D:\bki71\Metallica\Metallica - The Garage Remains The Same (MCP 001).wav

Peak level 100.0 %
Range quality 99.9 %
Test CRC C3AD539C
Copy CRC C3AD539C
Copy OK

No errors occurred


AccurateRip summary

Track 1 accurately ripped (confidence 1) [63C262CA]
Track 2 accurately ripped (confidence 1) [468099E4]
Track 3 accurately ripped (confidence 1) [17151ED2]
Track 4 accurately ripped (confidence 1) [7DE84B11]
Track 5 accurately ripped (confidence 1) [C91DF13B]
Track 6 accurately ripped (confidence 1) [84FD606D]

All tracks accurately ripped

End of status report


[CUETools log; Date: 23.04.2019 6:56:18; Version: 2.1.4]
Pregap length 00:00:32.
[AccurateRip ID: 000990c5-0033ec22-3e099706] found.
Track [ CRC | V2 ] Status
01 [63c262ca|ad3360cb] (2+3/5) Accurately ripped
02 [468099e4|00265762] (2+3/5) Accurately ripped
03 [17151ed2|5554994f] (2+3/5) Accurately ripped
04 [7de84b11|7475c431] (2+3/5) Accurately ripped
05 [c91df13b|3300575e] (2+3/5) Accurately ripped
06 [84fd606d|1d87b02e] (2+3/5) Accurately ripped

Track Peak [ CRC32 ] [W/O NULL] [ LOG ]
– 99,9 [C3AD539C] [173EAC99] CRC32
01 99,9 [A353629C] [10FCE482]
02 99,8 [ED50B0E9] [286243AB]
03 99,9 [557FBE38] [4CFEDD92]
04 99,9 [A5BDDA99] [89E914BD]
05 99,8 [8FACC7A3] [9ED3CD87]
06 99,8 [6181192D] [F1FE12EC]


Metallica: The Metallica Club Releases (1995 - 2006)

Tracklist CD5 - 2004 - FanCan 4 (USA The Metallica Club FC-004):

01. Blackened (6:20)
02. For Whom The Bell Tolls (4:32)
03. Welcome Home (Sanitarium) (6:22)
04. Leper Messiah (5:14)
05. Harvester Of Sorrow (4:53)
06. Eye Of The Beholder (6:01)
07. To Live Is To Die 'Doodle' (2:01)
08. Master Of Puppets (7:27)
09. One (7:58)
10. … And Justice For All (9:29)
11. Fade To Black (7:48)
12. Battery (4:56)

Recorded Live At Reunion Area Dallas, TX. February 5, 1989

Exact Audio Copy V0.99 prebeta 5 from 4. May 2009

EAC extraction logfile from 29. August 2012, 2:50

Metallica / Fan Can 4 (FC 004)

Used drive : PIONEER DVD-RW DVR-215 Adapter: 5 ID: 0

Read mode : Secure
Utilize accurate stream : Yes
Defeat audio cache : Yes
Make use of C2 pointers : No

Read offset correction : 48
Overread into Lead-In and Lead-Out : No
Fill up missing offset samples with silence : Yes
Delete leading and trailing silent blocks : No
Null samples used in CRC calculations : Yes
Used interface : Native Win32 interface for Win NT & 2000

Used output format : User Defined Encoder
Selected bitrate : 1024 kBit/s
Quality : High
Add ID3 tag : No
Command line compressor : C:\Program Files (x86)\Exact Audio Copy\Flac\flac.exe
Additional command line options : -8 -V %s


TOC of the extracted CD

Track | Start | Length | Start sector | End sector
––––––––––––––––––––––––––––-
1 | 0:00.32 | 6:20.20 | 32 | 28551
2 | 6:20.52 | 4:32.08 | 28552 | 48959
3 | 10:52.60 | 6:21.62 | 48960 | 77596
4 | 17:14.47 | 5:13.65 | 77597 | 101136
5 | 22:28.37 | 4:52.68 | 101137 | 123104
6 | 27:21.30 | 6:00.65 | 123105 | 150169
7 | 33:22.20 | 2:00.60 | 150170 | 159229
8 | 35:23.05 | 7:26.42 | 159230 | 192721
9 | 42:49.47 | 7:58.25 | 192722 | 228596
10 | 50:47.72 | 9:28.48 | 228597 | 271244
11 | 60:16.45 | 7:47.70 | 271245 | 306339
12 | 68:04.40 | 4:56.37 | 306340 | 328576


Range status and errors

Selected range

Filename E:\bki71\Metallica\Metallica - Fan Can 4 (FC 004).wav

Peak level 100.0 %
Range quality 100.0 %
Test CRC FE5DC495
Copy CRC FE5DC495
Copy OK

No errors occurred


AccurateRip summary

Track 1 accurately ripped (confidence 4) [4F3FA40C]
Track 2 accurately ripped (confidence 4) [6B321AEB]
Track 3 accurately ripped (confidence 4) [2FEA7742]
Track 4 accurately ripped (confidence 4) [BFD268C1]
Track 5 accurately ripped (confidence 4) [C2159A56]
Track 6 accurately ripped (confidence 4) [62875EA0]
Track 7 accurately ripped (confidence 4) [B2F4F2E1]
Track 8 accurately ripped (confidence 4) [B90BADD4]
Track 9 accurately ripped (confidence 4) [BA73683A]
Track 10 accurately ripped (confidence 4) [3A3C0C6B]
Track 11 accurately ripped (confidence 4) [59E99B69]
Track 12 accurately ripped (confidence 4) [E77C4D21]

All tracks accurately ripped

End of status report


[CUETools log; Date: 23.04.2019 6:59:09; Version: 2.1.4]
Pregap length 00:00:32.
[AccurateRip ID: 001ec408-01227565-92111d0c] found.
Track [ CRC | V2 ] Status
01 [4f3fa40c|061fdb45] (5+2/7) Accurately ripped
02 [6b321aeb|f886b213] (5+2/7) Accurately ripped
03 [2fea7742|c4811556] (5+2/7) Accurately ripped
04 [bfd268c1|fa86fa30] (5+2/7) Accurately ripped
05 [c2159a56|835d8b2a] (5+2/7) Accurately ripped
06 [62875ea0|0506f231] (5+2/7) Accurately ripped
07 [b2f4f2e1|2871cee9] (5+2/7) Accurately ripped
08 [b90badd4|e0af2611] (5+2/7) Accurately ripped
09 [ba73683a|b8106869] (5+2/7) Accurately ripped
10 [3a3c0c6b|90b076d5] (5+2/7) Accurately ripped
11 [59e99b69|ea54d070] (5+2/7) Accurately ripped
12 [e77c4d21|5f41a5a3] (5+2/7) Accurately ripped

Track Peak [ CRC32 ] [W/O NULL] [ LOG ]
– 99,9 [FE5DC495] [55276407] CRC32
01 99,9 [E54CB3AE] [95332B56]
02 99,9 [FCB71861] [2FA11D20]
03 99,9 [0173EC59] [8DDAE118]
04 99,9 [A5AF72A5] [C0577846]
05 99,9 [3C2DA39F] [1132283D]
06 99,9 [C327CC98] [4C14EB6D]
07 70,0 [AE02A2B8] [D0D91627]
08 99,8 [1C083D5B] [7B700168]
09 99,9 [B2C2911F] [5A74B0EC]
10 99,9 [342C8CB4] [633A70AF]
11 99,8 [2DCEFE1D] [9E5EFB5A]
12 99,8 [9E9F9743] [BBB02BF4]


Metallica: The Metallica Club Releases (1995 - 2006)

Tracklist CD6 - 2005 - FanCan 5 (USA The Metallica Club MECAN 005) (2-49407, 2-38639):

01. Hit The Lights (4:48)
02. Master Of Puppets (8:35)
03. Harvester Of Sorrow (6:15)
04. Welcome Home (Sanitarium) (6:50)
05. St. Anger (8:28)
06. Leper Messiah (5:54)
07. Phantom Lord (5:38)
08. Fade To Black (7:34)
09. Blackened (6:38)
10. One (9:10)
11. Breadfan (4:14)
12. Damage, Inc. (5:14)

Recorded live at the Fillmore, San Francisco, CA. May 18, 19, 21, 22, 2003

Exact Audio Copy V0.99 prebeta 5 from 4. May 2009

EAC extraction logfile from 24. October 2012, 13:27

Metallica / Live Rehearsals At The Fillmore (Fan Can 5)

Used drive : PIONEER DVD-RW DVR-215 Adapter: 5 ID: 0

Read mode : Secure
Utilize accurate stream : Yes
Defeat audio cache : Yes
Make use of C2 pointers : No

Read offset correction : 48
Overread into Lead-In and Lead-Out : No
Fill up missing offset samples with silence : Yes
Delete leading and trailing silent blocks : No
Null samples used in CRC calculations : Yes
Used interface : Native Win32 interface for Win NT & 2000

Used output format : User Defined Encoder
Selected bitrate : 1024 kBit/s
Quality : High
Add ID3 tag : No
Command line compressor : C:\Program Files (x86)\Exact Audio Copy\Flac\flac.exe
Additional command line options : -8 -V %s


TOC of the extracted CD

Track | Start | Length | Start sector | End sector
––––––––––––––––––––––––––––-
1 | 0:00.00 | 4:47.44 | 0 | 21568
2 | 4:47.44 | 8:35.35 | 21569 | 60228
3 | 13:23.04 | 6:14.45 | 60229 | 88323
4 | 19:37.49 | 6:50.01 | 88324 | 119074
5 | 26:27.50 | 8:27.65 | 119075 | 157164
6 | 34:55.40 | 5:54.05 | 157165 | 183719
7 | 40:49.45 | 5:37.47 | 183720 | 209041
8 | 46:27.17 | 7:33.52 | 209042 | 243068
9 | 54:00.69 | 6:37.62 | 243069 | 272905
10 | 60:38.56 | 9:10.10 | 272906 | 314165
11 | 69:48.66 | 4:14.36 | 314166 | 333251
12 | 74:03.27 | 5:14.11 | 333252 | 356812


Range status and errors

Selected range

Filename E:\bki71\Metallica\Metallica - Live Rehearsals At The Fillmore (Fan Can 5).wav

Peak level 100.0 %
Range quality 100.0 %
Test CRC 0F2FEDFF
Copy CRC 0F2FEDFF
Copy OK

No errors occurred


AccurateRip summary

Track 1 accurately ripped (confidence 2) [449A7293]
Track 2 accurately ripped (confidence 2) [1646E78C]
Track 3 accurately ripped (confidence 2) [BCAE01F6]
Track 4 accurately ripped (confidence 2) [096B5327]
Track 5 accurately ripped (confidence 2) [D7C25FF9]
Track 6 accurately ripped (confidence 2) [381CEF8F]
Track 7 accurately ripped (confidence 2) [678D92A3]
Track 8 accurately ripped (confidence 2) [8F11515B]
Track 9 accurately ripped (confidence 2) [3D59439C]
Track 10 accurately ripped (confidence 2) [E6F0252A]
Track 11 accurately ripped (confidence 2) [495850F5]
Track 12 accurately ripped (confidence 2) [B48C3834]

All tracks accurately ripped

End of status report


[CUETools log; Date: 23.04.2019 7:02:10; Version: 2.1.4]
[AccurateRip ID: 00240022-0150f97b-ba12950c] found.
Track [ CRC | V2 ] Status
01 [449a7293|00cb7d6b] (3+2/5) Accurately ripped
02 [1646e78c|23188b7d] (3+2/5) Accurately ripped
03 [bcae01f6|c21389f6] (3+2/5) Accurately ripped
04 [096b5327|5fde4ac4] (3+2/5) Accurately ripped
05 [d7c25ff9|53d7c3c2] (3+2/5) Accurately ripped
06 [381cef8f|bfe3bd50] (3+2/5) Accurately ripped
07 [678d92a3|686cc6e6] (3+2/5) Accurately ripped
08 [8f11515b|9cc2cccd] (3+2/5) Accurately ripped
09 [3d59439c|b2897141] (3+2/5) Accurately ripped
10 [e6f0252a|e45b1129] (3+2/5) Accurately ripped
11 [495850f5|b0fb6470] (3+2/5) Accurately ripped
12 [b48c3834|72da4e86] (3+2/5) Accurately ripped

Track Peak [ CRC32 ] [W/O NULL] [ LOG ]
– 100,0 [0F2FEDFF] [2B40DA5C] CRC32
01 99,9 [049954A4] [29B4E14A]
02 100,0 [AE3BBD19] [401C75BB]
03 100,0 [9450407D] [3A830C99]
04 100,0 [98442372] [65B7A446]
05 100,0 [BCF7D428] [2C9C7C41]
06 99,9 [39FD36F1] [F2109241]
07 99,9 [35327EA9] [19325F02]
08 99,9 [6660752F] [24F7C79C]
09 99,9 [20FDF2E1] [AC67E58B]
10 99,9 [40A7A160] [CF98C09F]
11 100,0 [9CF80403] [EBF98FD5]
12 99,9 [81795EA4] [202F7E0A]



All thanks go to the original releasers

Metallica in my Blog

Download Metallica: The Metallica Club Releases (1995 - 2006):