Tags
Language
Tags

Metallica - Master of Puppets 1986 (Remastered 2017)

Posted By: Pisulik
Metallica - Master of Puppets 1986 (Remastered 2017)

Metallica - Master of Puppets 1986 (Remastered 2017)
EAC Rip | FLAC (Tracks) +cue, log, m3u - 387 MB | MP3 CBR 320 kbps - 125 MB | 00:54:44
Hard Rock, Heavy Metal, Trash Metal | Label: Blackened Recordings

Master of Puppets was originally released on March 3rd, 1986, on Elektra Records and went on to become the first Metallica album to be certified Platinum by the RIAA. The album has been certified 6x Platinum in the United States and has sold over 10 million copies worldwide. In 2016, the album became the first metal album to be added to the National Recording Registry of the Library of Congress, an honor granted to works deemed “culturally, historically, or aesthetically significant”.

TRACKLIST

01. Battery (Remastered)
02. Master of Puppets (Remastered)
03. The Thing That Should Not Be (Remastered)
04. Welcome Home (Sanitarium) (Remastered)
05. Disposable Heroes (Remastered)
06. Leper Messiah (Remastered)
07. Orion (Remastered)
08. Damage, Inc. (Remastered)

Exact Audio Copy V1.0 beta 3 from 29. August 2011

EAC extraction logfile from 8. November 2017, 7:36

Metallica / Master Of Puppets (Remastered)

Used drive : TSSTcorpDVDWBD SH-B123L Adapter: 0 ID: 0

Read mode : Secure
Utilize accurate stream : Yes
Defeat audio cache : Yes
Make use of C2 pointers : No

Read offset correction : 6
Overread into Lead-In and Lead-Out : No
Fill up missing offset samples with silence : Yes
Delete leading and trailing silent blocks : No
Null samples used in CRC calculations : Yes
Used interface : Native Win32 interface for Win NT & 2000
Gap handling : Appended to previous track

Used output format : User Defined Encoder
Selected bitrate : 896 kBit/s
Quality : High
Add ID3 tag : No
Command line compressor : C:\Program Files (x86)\Exact Audio Copy\FLAC\FLAC.EXE
Additional command line options : -8 -e -p -V -T "ARTIST=%artist%" -T "TITLE=%title%" -T "ALBUM=%albumtitle%" -T "DATE=%year%" -T "TRACKNUMBER=%tracknr%" -T "GENRE=%genre%" -T "PERFORMER=%albuminterpret%" -T "COMPOSER=%composer%" %haslyrics%–tag-from-file=LYRICS="%lyricsfile%"%haslyrics% -T "ALBUMARTIST=%albumartist%" -T "DISCNUMBER=%cdnumber%" -T "TOTALDISCS=%totalcds%" -T "TOTALTRACKS=%numtracks%" -T "COMMENT=%comment%" %source% -o %dest%


TOC of the extracted CD

Track | Start | Length | Start sector | End sector
––––––––––––––––––––––––––––-
1 | 0:00.00 | 5:12.27 | 0 | 23426
2 | 5:12.27 | 8:35.29 | 23427 | 62080
3 | 13:47.56 | 6:36.08 | 62081 | 91788
4 | 20:23.64 | 6:27.11 | 91789 | 120824
5 | 26:51.00 | 8:16.47 | 120825 | 158071
6 | 35:07.47 | 5:39.66 | 158072 | 183562
7 | 40:47.38 | 8:27.16 | 183563 | 221603
8 | 49:14.54 | 5:32.36 | 221604 | 246539


Track 1

Filename M:\Music\FLAC & HiRez\Metallica - Master of Puppets [2017 Remaster]\01 - Battery (Remastered) - METALLICA.wav

Pre-gap length 0:00:02.00

Peak level 99.0 %
Extraction speed 2.1 X
Track quality 100.0 %
Test CRC 364E8E3D
Copy CRC 364E8E3D
Track not present in AccurateRip database
Copy OK

Track 2

Filename M:\Music\FLAC & HiRez\Metallica - Master of Puppets [2017 Remaster]\02 - Master of Puppets (Remastered) - METALLICA.wav

Peak level 94.8 %
Extraction speed 2.5 X
Track quality 100.0 %
Test CRC 478A02BA
Copy CRC 478A02BA
Track not present in AccurateRip database
Copy OK

Track 3

Filename M:\Music\FLAC & HiRez\Metallica - Master of Puppets [2017 Remaster]\03 - The Thing That Should Not Be (Remastered) - METALLICA.wav

Peak level 100.0 %
Extraction speed 2.9 X
Track quality 100.0 %
Test CRC EBFDE7D4
Copy CRC EBFDE7D4
Track not present in AccurateRip database
Copy OK

Track 4

Filename M:\Music\FLAC & HiRez\Metallica - Master of Puppets [2017 Remaster]\04 - Welcome Home (Sanitarium) (Remastered) - METALLICA.wav

Peak level 100.0 %
Extraction speed 3.1 X
Track quality 100.0 %
Test CRC 14ACCD60
Copy CRC 14ACCD60
Track not present in AccurateRip database
Copy OK

Track 5

Filename M:\Music\FLAC & HiRez\Metallica - Master of Puppets [2017 Remaster]\05 - Disposable Heroes (Remastered) - METALLICA.wav

Peak level 100.0 %
Extraction speed 3.5 X
Track quality 100.0 %
Test CRC 066B541D
Copy CRC 066B541D
Track not present in AccurateRip database
Copy OK

Track 6

Filename M:\Music\FLAC & HiRez\Metallica - Master of Puppets [2017 Remaster]\06 - Leper Messiah (Remastered) - METALLICA.wav

Peak level 100.0 %
Extraction speed 3.6 X
Track quality 100.0 %
Test CRC E9A5A4F7
Copy CRC E9A5A4F7
Track not present in AccurateRip database
Copy OK

Track 7

Filename M:\Music\FLAC & HiRez\Metallica - Master of Puppets [2017 Remaster]\07 - Orion (Remastered) - METALLICA.wav

Peak level 100.0 %
Extraction speed 4.0 X
Track quality 100.0 %
Test CRC DB25629E
Copy CRC DB25629E
Track not present in AccurateRip database
Copy OK

Track 8

Filename M:\Music\FLAC & HiRez\Metallica - Master of Puppets [2017 Remaster]\08 - Damage, Inc. (Remastered) - METALLICA.wav

Peak level 100.0 %
Extraction speed 4.0 X
Track quality 100.0 %
Test CRC 6D223685
Copy CRC 6D223685
Track not present in AccurateRip database
Copy OK


None of the tracks are present in the AccurateRip database

No errors occurred

End of status report

==== Log checksum 583D6E1A2066553F3F18CF0576500AF39B6C44B3DC6C4F1EE8F0143B03E03766 ====


All thanks go to the original releaser