Tags
Language
Tags

Míceál O'Rourke - Field: The Complete Nocturnes (1989)

Posted By: tirexiss
Míceál O'Rourke - Field: The Complete Nocturnes (1989)

Míceál O'Rourke - Field: The Complete Nocturnes (1989)
EAC | FLAC (image+.cue, log) | Covers Included | 01:29:56 | 315 MB
Genre: Classical | Label: Chandos Records | Catalog: 8719

Les compositions de FIELD sont consacrées au piano et préfigure 30 ans après le choix ultérieur de CHOPIN de se consacrer à cet instrument. Les oeuvres de l'Irlandais reflètent fidèlement les principales caractéristiques de son jeu, Spohr, Hummel, Glinka et Liszt témoignèrent de sa délicatesse et de sa vitesse perlée, de son jeu langoureux et apaisant qui remplaçait la vacuité d'une virtuosité à la mode.
La musique de Field exprime avant tout l'intimité plutôt que l'extraversion, et l'influence qu'exercèrent ses charmantes et délicates improvisations, ses accompagnements riches et pourtant transparents sur l'astucieux et impressionnable Chopin a été esthétiquement et historiquement prouvé. Dès l'âge de 8 ans CHOPIN jouait des pièces de FIELD et à 13 ans il jouait ses concertos avec orchestre.
Les 18 Nocturnes présentaient une conception nouvelle qui s'écartait d'une manière décisive des conventions. Leurs sentiments tendres qu'ils évoquaient avec l'ambiance qu'ils créaient étaient en opposition totale avec les idées reçues courantes à l'époque sur la composition, avec les programmes littéraires ou la façon de développer des thèmes.
Tous les Nocturnes sont dominés par une division très nette entre la mélodie et l'accompagnement et tous baignent, en dépit de leur diversité souvent surprenante, dans la même ambiance de doux regrets de nostalgie des étés paresseux, de réminiscence des nuits et de jours heureux.
L'intégrale des 18 Nocturnes d'une durée de 90 minutes nécessite 2 CD. Le pianiste Irlandais, Miceal O' ROURKE spécialiste de John FIELD a enregistré toute son œuvre dont les 7 concertos pour piano dont la composition s'étalent sur 23 ans de 1799 à 1822.

Míceál O'Rourke - Field: The Complete Nocturnes (1989)

Track List:

CD 1:
01. No. 1 in E-Flat Major [0:05:07.25]
02. No. 2 in C Minor [0:04:28.37]
03. No. 3 in A-Flat Major [0:04:12.25]
04. No. 4 in A Major [0:05:57.43]
05. No. 5 in B-Flat Major [0:03:23.15]
06. No. 6 in F Major [0:05:40.07]
07. No. 7 in C Major [0:05:07.63]
08. No. 8 in A Major [0:05:13.27]
09. No. 9 in E-Flat Major [0:04:23.08]

CD 2:
01. No. 10 in E minor [0:04:03.62]
02. No. 11 in E flat major [0:04:12.13]
03. No. 12 in G major [0:02:46.25]
04. No. 13 in D minor [0:03:56.50]
05. No. 14 in C major [0:09:21.50]
06. No. 15 in C major [0:04:11.00]
07. No. 16 in F major [0:05:48.37]
08. No. 17 in E major [0:06:38.13]
09. No. 19 in E major [0:05:31.25]

Performers:
Míceál O'Rourke - piano

Exact Audio Copy V1.0 beta 3 from 29. August 2011

EAC extraction logfile from 25. August 2012, 10:20

Míceál O'Rourke / Field - The Complete Nocturnes - O'Rourke (Disc 1)

Used drive : HL-DT-STDVDRAM GSA-H10A Adapter: 0 ID: 0

Read mode : Secure
Utilize accurate stream : Yes
Defeat audio cache : Yes
Make use of C2 pointers : No

Read offset correction : 667
Overread into Lead-In and Lead-Out : No
Fill up missing offset samples with silence : Yes
Delete leading and trailing silent blocks : No
Null samples used in CRC calculations : Yes
Used interface : Native Win32 interface for Win NT & 2000

Used output format : User Defined Encoder
Selected bitrate : 1024 kBit/s
Quality : High
Add ID3 tag : No
Command line compressor : C:\Program Files\Exact Audio Copy\Flac\flac.exe
Additional command line options : -8 -V -T "TITLE=%title%" -T "ARTIST=%artist%" -T "ALBUMARTIST=%albumartist%" -T "ALBUM=%albumtitle%" -T "DATE=%year%" -T "TRACKNUMBER=%tracknr%" -T "TRACKTOTAL=%numtracks%" -T "GENRE=%genre%" -T "COMMENT=%comment%" -T "PERFORMER=%albuminterpret%" -T "COMPOSER=%composer%" %source% -o %dest%


TOC of the extracted CD

Track | Start | Length | Start sector | End sector
––––––––––––––––––––––––––––-
1 | 0:00.33 | 5:07.25 | 33 | 23082
2 | 5:07.58 | 4:28.37 | 23083 | 43219
3 | 9:36.20 | 4:12.25 | 43220 | 62144
4 | 13:48.45 | 5:57.43 | 62145 | 88962
5 | 19:46.13 | 3:23.15 | 88963 | 104202
6 | 23:09.28 | 5:40.07 | 104203 | 129709
7 | 28:49.35 | 5:07.63 | 129710 | 152797
8 | 33:57.23 | 5:13.27 | 152798 | 176299
9 | 39:10.50 | 4:23.08 | 176300 | 196032


Range status and errors

Selected range

Filename F:\Ripped general\[1061] Field - The Complete Nocturnes - O'Rourke\cd1\Field - The Complete Nocturnes - O'Rourke (Disc 1).wav

Peak level 74.6 %
Extraction speed 4.2 X
Range quality 100.0 %
Test CRC 44FC6638
Copy CRC 44FC6638
Copy OK

No errors occurred


AccurateRip summary

Track 1 accurately ripped (confidence 4) [63DB3E5A] (AR v1)
Track 2 accurately ripped (confidence 4) [81B6DBA7] (AR v1)
Track 3 accurately ripped (confidence 4) [4FEE2AA5] (AR v1)
Track 4 accurately ripped (confidence 4) [253BC3CC] (AR v1)
Track 5 accurately ripped (confidence 4) [1F93EEAD] (AR v1)
Track 6 accurately ripped (confidence 4) [4715A826] (AR v1)
Track 7 accurately ripped (confidence 4) [07A2824E] (AR v1)
Track 8 accurately ripped (confidence 4) [90A14CEB] (AR v1)
Track 9 accurately ripped (confidence 4) [6314D077] (AR v1)

All tracks accurately ripped

End of status report

Exact Audio Copy V1.0 beta 3 from 29. August 2011

EAC extraction logfile from 25. August 2012, 12:16

Míceál O'Rourke / Field - The Complete Nocturnes - O'Rourke (Disc 2)

Used drive : HL-DT-STDVDRAM GSA-H10A Adapter: 0 ID: 0

Read mode : Secure
Utilize accurate stream : Yes
Defeat audio cache : Yes
Make use of C2 pointers : No

Read offset correction : 667
Overread into Lead-In and Lead-Out : No
Fill up missing offset samples with silence : Yes
Delete leading and trailing silent blocks : No
Null samples used in CRC calculations : Yes
Used interface : Native Win32 interface for Win NT & 2000

Used output format : User Defined Encoder
Selected bitrate : 1024 kBit/s
Quality : High
Add ID3 tag : No
Command line compressor : C:\Program Files\Exact Audio Copy\Flac\flac.exe
Additional command line options : -8 -V -T "TITLE=%title%" -T "ARTIST=%artist%" -T "ALBUMARTIST=%albumartist%" -T "ALBUM=%albumtitle%" -T "DATE=%year%" -T "TRACKNUMBER=%tracknr%" -T "TRACKTOTAL=%numtracks%" -T "GENRE=%genre%" -T "COMMENT=%comment%" -T "PERFORMER=%albuminterpret%" -T "COMPOSER=%composer%" %source% -o %dest%


TOC of the extracted CD

Track | Start | Length | Start sector | End sector
––––––––––––––––––––––––––––-
1 | 0:00.33 | 4:03.62 | 33 | 18319
2 | 4:04.20 | 4:12.13 | 18320 | 37232
3 | 8:16.33 | 2:46.25 | 37233 | 49707
4 | 11:02.58 | 3:56.50 | 49708 | 67457
5 | 14:59.33 | 9:21.50 | 67458 | 109582
6 | 24:21.08 | 4:11.00 | 109583 | 128407
7 | 28:32.08 | 5:48.37 | 128408 | 154544
8 | 34:20.45 | 6:38.13 | 154545 | 184407
9 | 40:58.58 | 5:31.25 | 184408 | 209257


Range status and errors

Selected range

Filename F:\Ripped general\[1061] Field - The Complete Nocturnes - O'Rourke\cd2\Field - The Complete Nocturnes - O'Rourke (Disc 2).wav

Peak level 59.5 %
Extraction speed 1.9 X
Range quality 99.9 %
Test CRC 753C2CE2
Copy CRC 753C2CE2
Copy OK

No errors occurred


AccurateRip summary

Track 1 accurately ripped (confidence 4) [1D2ADBB8] (AR v1)
Track 2 accurately ripped (confidence 4) [0036C1D4] (AR v1)
Track 3 accurately ripped (confidence 4) [CB6688DB] (AR v1)
Track 4 accurately ripped (confidence 4) [8EFF503A] (AR v1)
Track 5 accurately ripped (confidence 4) [B48DCE4A] (AR v1)
Track 6 accurately ripped (confidence 4) [70538B22] (AR v1)
Track 7 accurately ripped (confidence 4) [79483A1F] (AR v1)
Track 8 accurately ripped (confidence 4) [8353E61D] (AR v1)
Track 9 accurately ripped (confidence 4) [2DED61D9] (AR v1)

All tracks accurately ripped

End of status report

Thanks to the Original ripper (unknown)!

Welcome to my blog!

Download: