Subcategories

Michael Franks - The Best Of Michael Franks: A Backward Glance (1998) [Re-Up]

Posted By: Designol
Michael Franks - The Best Of Michael Franks: A Backward Glance (1998) [Re-Up]

Michael Franks - The Best Of Michael Franks: A Backward Glance (1998)
EAC | FLAC | Tracks (Cue&Log) ~ 415 Mb | Mp3 (CBR320) ~ 158 Mb | Scans ~ 88 Mb
Smooth Jazz, Jazz-Pop, Vocal Jazz | Label: Warner Bros. | # 9362-46855-2 | 01:09:10

The Best of Michael Franks: A Backward Glance is a good 15-track collection that is equally divided between soft rock like "Popsicle Toes" and smooth jazz. Any curious listener looking for a one-stop introduction to Franks would be well served with this collection. Among the highlights are "The Lady Wants to Know," "Antonio's Song," "When the Cookie Jar Is Empty," "Tiger in the Rain," "Baseball," "Your Secret's Safe with Me," "When I Give My Love to You," "The Art of Love," "Soul Mate," and "Hourglass".

Review by Stephen Thomas Erlewine, Allmusic.com

Michael Franks - The Best Of Michael Franks: A Backward Glance (1998) [Re-Up]



Tracklist:

01. Popsicle Toes (04:35)
02. Eggplant (03:37)
03. The Lady Wants To Know (04:44)
04. Antonio's Song (05:04)
05. When The Cookie Jar Is Empty (05:10)
06. Tiger In The Rain (04:20)
07. Baseball (03:49)
08. Love Duet (04:59)
09. When Sly Calls (05:53)
10. Your Secret's Safe With Me (04:39)
11. When I Give My Love To You (04:26)
12. Island Life (04:22)
13. The Art Of Love (04:12)
14. Soul Mate (04:28)
15. Hourglass (04:45)


Exact Audio Copy V1.0 beta 3 from 29. August 2011

EAC extraction logfile from 3. November 2016, 0:29

Michael Franks / The Best Of Michael Franks A Backward Glance

Used drive : HL-DT-STDVDRAM GH24NS90 Adapter: 1 ID: 0

Read mode : Secure
Utilize accurate stream : Yes
Defeat audio cache : Yes
Make use of C2 pointers : No

Read offset correction : 6
Overread into Lead-In and Lead-Out : No
Fill up missing offset samples with silence : Yes
Delete leading and trailing silent blocks : No
Null samples used in CRC calculations : Yes
Used interface : Native Win32 interface for Win NT & 2000
Gap handling : Appended to previous track

Used output format : User Defined Encoder
Selected bitrate : 1024 kBit/s
Quality : High
Add ID3 tag : No
Command line compressor : C:\Program Files (x86)\FLAC\metaflac.exe
Additional command line options : -8


TOC of the extracted CD

Track | Start | Length | Start sector | End sector
––––––––––––––––––––––––––––-
1 | 0:00.00 | 4:35.45 | 0 | 20669
2 | 4:35.45 | 3:37.17 | 20670 | 36961
3 | 8:12.62 | 4:44.20 | 36962 | 58281
4 | 12:57.07 | 5:04.03 | 58282 | 81084
5 | 18:01.10 | 5:10.70 | 81085 | 104404
6 | 23:12.05 | 4:20.35 | 104405 | 123939
7 | 27:32.40 | 3:49.12 | 123940 | 141126
8 | 31:21.52 | 4:59.23 | 141127 | 163574
9 | 36:21.00 | 5:53.45 | 163575 | 190094
10 | 42:14.45 | 4:39.65 | 190095 | 211084
11 | 46:54.35 | 4:26.17 | 211085 | 231051
12 | 51:20.52 | 4:22.13 | 231052 | 250714
13 | 55:42.65 | 4:12.50 | 250715 | 269664
14 | 59:55.40 | 4:28.47 | 269665 | 289811
15 | 64:24.12 | 4:45.33 | 289812 | 311219


Track 1

Filename C:\Exact Audio Copy\Michael Franks\The Best Of Michael Franks A Backward Glance\01. Popsicle Toes.wav

Pre-gap length 0:00:02.00

Peak level 97.9 %
Extraction speed 1.2 X
Track quality 100.0 %
Test CRC 2A462942
Copy CRC 2A462942
Accurately ripped (confidence 9) [9F69C04A] (AR v2)
Copy OK

Track 2

Filename C:\Exact Audio Copy\Michael Franks\The Best Of Michael Franks A Backward Glance\02. Eggplant.wav

Pre-gap length 0:00:01.35

Peak level 97.9 %
Extraction speed 1.3 X
Track quality 100.0 %
Test CRC 625DCDBF
Copy CRC 625DCDBF
Accurately ripped (confidence 9) [4FD98FAB] (AR v2)
Copy OK

Track 3

Filename C:\Exact Audio Copy\Michael Franks\The Best Of Michael Franks A Backward Glance\03. The Lady Wants To Know.wav

Pre-gap length 0:00:00.52

Peak level 97.9 %
Extraction speed 1.4 X
Track quality 100.0 %
Test CRC B1B3BD42
Copy CRC B1B3BD42
Accurately ripped (confidence 9) [267932CE] (AR v2)
Copy OK

Track 4

Filename C:\Exact Audio Copy\Michael Franks\The Best Of Michael Franks A Backward Glance\04. Antonio's Song.wav

Peak level 98.1 %
Extraction speed 1.5 X
Track quality 100.0 %
Test CRC 65C40288
Copy CRC 65C40288
Accurately ripped (confidence 9) [B540AC47] (AR v2)
Copy OK

Track 5

Filename C:\Exact Audio Copy\Michael Franks\The Best Of Michael Franks A Backward Glance\05. When The Cookie Jar Is Empty.wav

Peak level 97.9 %
Extraction speed 1.7 X
Track quality 100.0 %
Test CRC CCE129B9
Copy CRC CCE129B9
Accurately ripped (confidence 9) [0A4D5D4F] (AR v2)
Copy OK

Track 6

Filename C:\Exact Audio Copy\Michael Franks\The Best Of Michael Franks A Backward Glance\06. Tiger In The Rain.wav

Pre-gap length 0:00:02.30

Peak level 99.9 %
Extraction speed 1.7 X
Track quality 100.0 %
Test CRC 93BCDAF1
Copy CRC 93BCDAF1
Accurately ripped (confidence 9) [9F4008B1] (AR v2)
Copy OK

Track 7

Filename C:\Exact Audio Copy\Michael Franks\The Best Of Michael Franks A Backward Glance\07. Baseball.wav

Pre-gap length 0:00:02.43

Peak level 97.9 %
Extraction speed 1.8 X
Track quality 100.0 %
Test CRC 37D9BF9A
Copy CRC 37D9BF9A
Accurately ripped (confidence 9) [C5E21D48] (AR v2)
Copy OK

Track 8

Filename C:\Exact Audio Copy\Michael Franks\The Best Of Michael Franks A Backward Glance\08. Love Duet.wav

Pre-gap length 0:00:01.40

Peak level 98.3 %
Extraction speed 1.9 X
Track quality 100.0 %
Test CRC 5B2F8EE8
Copy CRC 5B2F8EE8
Accurately ripped (confidence 9) [6F32E54B] (AR v2)
Copy OK

Track 9

Filename C:\Exact Audio Copy\Michael Franks\The Best Of Michael Franks A Backward Glance\09. When Sly Calls.wav

Pre-gap length 0:00:02.45

Peak level 97.9 %
Extraction speed 2.1 X
Track quality 100.0 %
Test CRC 3A7C7887
Copy CRC 3A7C7887
Accurately ripped (confidence 9) [602C9BF2] (AR v2)
Copy OK

Track 10

Filename C:\Exact Audio Copy\Michael Franks\The Best Of Michael Franks A Backward Glance\10. Your Secret's Safe With Me.wav

Pre-gap length 0:00:02.00

Peak level 97.9 %
Extraction speed 1.9 X
Track quality 99.9 %
Test CRC BC55FFF3
Copy CRC BC55FFF3
Accurately ripped (confidence 9) [FB3E48F3] (AR v2)
Copy OK

Track 11

Filename C:\Exact Audio Copy\Michael Franks\The Best Of Michael Franks A Backward Glance\11. When I Give My Love To You.wav

Pre-gap length 0:00:02.23

Peak level 97.9 %
Extraction speed 1.9 X
Track quality 99.9 %
Test CRC F62B01DB
Copy CRC F62B01DB
Accurately ripped (confidence 9) [E015536B] (AR v2)
Copy OK

Track 12

Filename C:\Exact Audio Copy\Michael Franks\The Best Of Michael Franks A Backward Glance\12. Island Life.wav

Pre-gap length 0:00:02.22

Peak level 99.9 %
Extraction speed 2.2 X
Track quality 100.0 %
Test CRC B6086467
Copy CRC B6086467
Accurately ripped (confidence 9) [7C24BDA7] (AR v2)
Copy OK

Track 13

Filename C:\Exact Audio Copy\Michael Franks\The Best Of Michael Franks A Backward Glance\13. The Art Of Love.wav

Pre-gap length 0:00:02.38

Peak level 97.9 %
Extraction speed 2.0 X
Track quality 99.9 %
Test CRC 8163F278
Copy CRC 8163F278
Accurately ripped (confidence 9) [2A7B52D9] (AR v2)
Copy OK

Track 14

Filename C:\Exact Audio Copy\Michael Franks\The Best Of Michael Franks A Backward Glance\14. Soul Mate.wav

Pre-gap length 0:00:02.40

Peak level 98.1 %
Extraction speed 2.4 X
Track quality 100.0 %
Test CRC 313D1CF4
Copy CRC 313D1CF4
Accurately ripped (confidence 8) [2377F6A8] (AR v2)
Copy OK

Track 15

Filename C:\Exact Audio Copy\Michael Franks\The Best Of Michael Franks A Backward Glance\15. Hourglass.wav

Pre-gap length 0:00:02.67

Peak level 99.9 %
Extraction speed 2.4 X
Track quality 100.0 %
Test CRC F850FC77
Copy CRC F850FC77
Accurately ripped (confidence 9) [F6B3E091] (AR v2)
Copy OK


All tracks accurately ripped

No errors occurred

End of status report

–– CUETools DB Plugin V2.1.6

[CTDB TOCID: dA845A_X51Ker5vasdllle4VAXU-] found
Submit result: dA845A_X51Ker5vasdllle4VAXU- has been confirmed
Track | CTDB Status
1 | (15/15) Accurately ripped
2 | (15/15) Accurately ripped
3 | (15/15) Accurately ripped
4 | (15/15) Accurately ripped
5 | (15/15) Accurately ripped
6 | (15/15) Accurately ripped
7 | (15/15) Accurately ripped
8 | (15/15) Accurately ripped
9 | (15/15) Accurately ripped
10 | (15/15) Accurately ripped
11 | (15/15) Accurately ripped
12 | (15/15) Accurately ripped
13 | (15/15) Accurately ripped
14 | (15/15) Accurately ripped
15 | (15/15) Accurately ripped


==== Log checksum 12BB1F897FFB7B5360F8AF8B1B8DDA979CA8287E66160417E82B8EF8BEC841D6 ====

foobar2000 1.2 / Dynamic Range Meter 1.1.1
log date: 2016-11-11 22:41:04

––––––––––––––––––––––––––––––––––––––––
Analyzed: Michael Franks / The Best Of Michael Franks A Backward Glance
––––––––––––––––––––––––––––––––––––––––

DR Peak RMS Duration Track
––––––––––––––––––––––––––––––––––––––––
DR11 -0.18 dB -13.97 dB 4:36 01-Popsicle Toes
DR11 -0.18 dB -12.68 dB 3:37 02-Eggplant
DR11 -0.18 dB -13.21 dB 4:44 03-The Lady Wants To Know
DR11 -0.16 dB -13.22 dB 5:04 04-Antonio's Song
DR12 -0.18 dB -15.21 dB 5:11 05-When The Cookie Jar Is Empty
DR13 -0.01 dB -15.85 dB 4:20 06-Tiger In The Rain
DR14 -0.18 dB -16.28 dB 3:49 07-Baseball
DR11 -0.14 dB -14.11 dB 4:59 08-Love Duet
DR12 -0.18 dB -14.80 dB 5:54 09-When Sly Calls
DR12 -0.18 dB -14.20 dB 4:40 10-Your Secret's Safe With Me
DR12 -0.18 dB -14.43 dB 4:26 11-When I Give My Love To You
DR10 -0.01 dB -12.22 dB 4:22 12-Island Life
DR11 -0.18 dB -13.27 dB 4:13 13-The Art Of Love
DR11 -0.16 dB -13.50 dB 4:29 14-Soul Mate
DR13 0.00 dB -14.97 dB 4:45 15-Hourglass
––––––––––––––––––––––––––––––––––––––––

Number of tracks: 15
Official DR value: DR12

Samplerate: 44100 Hz
Channels: 2
Bits per sample: 16
Bitrate: 677 kbps
Codec: FLAC
================================================================================

Michael Franks - The Best Of Michael Franks: A Backward Glance (1998) [Re-Up]