Tags
Language
Tags

Michael Jackson & The Jackson 5 - Motown's Greatest Hits 1969-1975 (1992)

Posted By: Rtax
Michael Jackson & The Jackson 5 - Motown's Greatest Hits 1969-1975 (1992)

Michael Jackson & The Jackson 5 - Motown's Greatest Hits 1969-1975 (1992)
XLD Rip | FLAC (tracks, cue, log, scans) - 430 MB | MP3 CBR 320 kbps - 188 MB
1:17:15 | Soul, Disco, Funk, R&B | Label: Motown

Michael Jackson and the Jackson Five: Motow's Greatest hits 1969-1975. 1992, import on Polydor records Japan (POCT-1005). 20 tracks in total. Out of print.

Tracklist
1. Michael Jackson & The Jackson 5 – I Want You Back (PWL Remix) (04:05)
2. Michael Jackson & The Jackson 5 – Doctor My Eyes (03:12)
3. Michael Jackson – One Day In Your Life (04:10)
4. Michael Jackson & The Jackson 5 – Lookin' Through The Windows (03:38)
5. Michael Jackson – Got To Be There (03:19)
6. Michael Jackson & The Jackson 5 – I'll Be There (03:35)
7. Michael Jackson & The Jackson 5 – The Love You Save (02:42)
8. Michael Jackson & The Jackson 5 – A B C (02:38)
9. Michael Jackson – Rockin' Robin (02:29)
10. Michael Jackson – Happy (Love Theme From 'Lady Sings The Blues') (03:19)
11. Michael Jackson – Ben (02:41)
12. Michael Jackson & The Jackson 5 – Never Can Say Goodbye (02:56)
13. Michael Jackson – Farewell My Summer Love (03:41)
14. Michael Jackson & The Jackson 5 – I Want You Back (Original Version) (02:58)
15. Michael Jackson & The Jackson 5 – Mama's Pearl (03:11)
16. Michael Jackson – Ain't No Sunshine (04:09)
17. Michael Jackson – Girl You're So Together (03:09)
18. Michael Jackson & The Jackson 5 – Hallelujah Day (02:43)
19. Michael Jackson & The Jackson 5 – Skywriter (03:10)
20. Michael Jackson – We're Almost There (03:37)
X Lossless Decoder version 20140504 (147.0)

XLD extraction logfile from 2014-05-16 01:25:09 +0200

Michael Jackson And The Jackson 5 / Motown's Greatest Hits 1969-1975

Used drive : HL-DT-ST DVDRW GX40N (revision RQ00)
Media type : Pressed CD

Ripper mode : XLD Secure Ripper
Disable audio cache : OK for the drive with a cache less than 1375KiB
Make use of C2 pointers : NO
Read offset correction : 6
Max retry count : 100
Gap status : Analyzed, Appended (except HTOA)

TOC of the extracted CD
Track | Start | Length | Start sector | End sector
––––––––––––––––––––––––––––-
1 | 00:00:37 | 04:08:13 | 37 | 18649
2 | 04:08:50 | 03:14:10 | 18650 | 33209
3 | 07:22:60 | 04:13:00 | 33210 | 52184
4 | 11:35:60 | 03:38:72 | 52185 | 68606
5 | 15:14:57 | 03:24:68 | 68607 | 83974
6 | 18:39:50 | 03:59:07 | 83975 | 101906
7 | 22:38:57 | 03:05:05 | 101907 | 115786
8 | 25:43:62 | 03:00:13 | 115787 | 129299
9 | 28:44:00 | 02:33:52 | 129300 | 140826
10 | 31:17:52 | 03:24:08 | 140827 | 156134
11 | 34:41:60 | 02:46:05 | 156135 | 168589
12 | 37:27:65 | 03:00:37 | 168590 | 182126
13 | 40:28:27 | 03:44:43 | 182127 | 198969
14 | 44:12:70 | 02:59:67 | 198970 | 212461
15 | 47:12:62 | 03:13:15 | 212462 | 226951
16 | 50:26:02 | 03:55:48 | 226952 | 244624
17 | 54:21:50 | 03:13:55 | 244625 | 259154
18 | 57:35:30 | 02:48:20 | 259155 | 271774
19 | 60:23:50 | 03:10:50 | 271775 | 286074
20 | 63:34:25 | 03:41:37 | 286075 | 302686

AccurateRip Summary (DiscID: 0031a716-02cfedb0-1c0fc314)
Track 01 : OK (v2, confidence 2/2)
Track 02 : OK (v2, confidence 2/2)
Track 03 : OK (v2, confidence 2/2)
Track 04 : OK (v2, confidence 2/2)
Track 05 : OK (v2, confidence 2/2)
Track 06 : OK (v2, confidence 2/2)
Track 07 : OK (v2, confidence 2/2)
Track 08 : OK (v2, confidence 2/2)
Track 09 : OK (v2, confidence 2/2)
Track 10 : OK (v2, confidence 2/2)
Track 11 : OK (v2, confidence 2/2)
Track 12 : OK (v2, confidence 2/2)
Track 13 : OK (v2, confidence 2/2)
Track 14 : OK (v2, confidence 2/2)
Track 15 : OK (v2, confidence 2/2)
Track 16 : OK (v2, confidence 2/2)
Track 17 : OK (v2, confidence 2/2)
Track 18 : OK (v2, confidence 2/2)
Track 19 : OK (v2, confidence 2/2)
Track 20 : OK (v2, confidence 2/2)
->All tracks accurately ripped.

All Tracks
Album gain : -2.79 dB
Peak : 0.891693
Statistics
Read error : 0
Jitter error (maybe fixed) : 0
Retry sector count : 0
Damaged sector count : 0

Track 01
Filename : /XLD/Michael Jackson And The Jackson 5 - Motown's Greatest Hits 1969-1975 (1992) [FLAC] {Japan}/01 - I Want You Back (PWL Remix).flac
Pre-gap length : 00:02:37

Track gain : -2.51 dB
Peak : 0.807953
CRC32 hash (test run) : D66516E6
CRC32 hash : D66516E6
CRC32 hash (skip zero) : 779067CD
AccurateRip v1 signature : 51F0CCCC
AccurateRip v2 signature : 3746432A
->Accurately ripped (v2, confidence 2/2)
Statistics
Read error : 0
Jitter error (maybe fixed) : 0
Retry sector count : 0
Damaged sector count : 0

Track 02
Filename : /XLD/Michael Jackson And The Jackson 5 - Motown's Greatest Hits 1969-1975 (1992) [FLAC] {Japan}/02 - Doctor My Eyes.flac
Pre-gap length : 00:02:09

Track gain : -3.22 dB
Peak : 0.725677
CRC32 hash (test run) : 6EE69BB8
CRC32 hash : 6EE69BB8
CRC32 hash (skip zero) : 4A8DF2AC
AccurateRip v1 signature : F6E17241
AccurateRip v2 signature : 6C1D4616
->Accurately ripped (v2, confidence 2/2)
Statistics
Read error : 0
Jitter error (maybe fixed) : 0
Retry sector count : 0
Damaged sector count : 0

Track 03
Filename : /XLD/Michael Jackson And The Jackson 5 - Motown's Greatest Hits 1969-1975 (1992) [FLAC] {Japan}/03 - One Day In Your Life.flac
Pre-gap length : 00:02:37

Track gain : -1.04 dB
Peak : 0.763611
CRC32 hash (test run) : 79189508
CRC32 hash : 79189508
CRC32 hash (skip zero) : 3C604E02
AccurateRip v1 signature : A3D15ECC
AccurateRip v2 signature : 721F9115
->Accurately ripped (v2, confidence 2/2)
Statistics
Read error : 0
Jitter error (maybe fixed) : 0
Retry sector count : 0
Damaged sector count : 0

Track 04
Filename : /XLD/Michael Jackson And The Jackson 5 - Motown's Greatest Hits 1969-1975 (1992) [FLAC] {Japan}/04 - Lookin' Through The Windows.flac
Pre-gap length : 00:02:29

Track gain : -2.63 dB
Peak : 0.659271
CRC32 hash (test run) : AF412122
CRC32 hash : AF412122
CRC32 hash (skip zero) : B1447C24
AccurateRip v1 signature : 5A348BE6
AccurateRip v2 signature : B8587214
->Accurately ripped (v2, confidence 2/2)
Statistics
Read error : 0
Jitter error (maybe fixed) : 0
Retry sector count : 0
Damaged sector count : 0

Track 05
Filename : /XLD/Michael Jackson And The Jackson 5 - Motown's Greatest Hits 1969-1975 (1992) [FLAC] {Japan}/05 - Got To Be There.flac
Pre-gap length : 00:02:24

Track gain : -3.45 dB
Peak : 0.667145
CRC32 hash (test run) : E5EC487D
CRC32 hash : E5EC487D
CRC32 hash (skip zero) : AC1D5A7E
AccurateRip v1 signature : F9FEF173
AccurateRip v2 signature : 741C4FB7
->Accurately ripped (v2, confidence 2/2)
Statistics
Read error : 0
Jitter error (maybe fixed) : 0
Retry sector count : 0
Damaged sector count : 0

Track 06
Filename : /XLD/Michael Jackson And The Jackson 5 - Motown's Greatest Hits 1969-1975 (1992) [FLAC] {Japan}/06 - I'll Be There.flac
Pre-gap length : 00:02:29

Track gain : -1.60 dB
Peak : 0.612854
CRC32 hash (test run) : 1423F8B7
CRC32 hash : 1423F8B7
CRC32 hash (skip zero) : E1E90799
AccurateRip v1 signature : 08F4E801
AccurateRip v2 signature : C5D771F5
->Accurately ripped (v2, confidence 2/2)
Statistics
Read error : 0
Jitter error (maybe fixed) : 0
Retry sector count : 0
Damaged sector count : 0

Track 07
Filename : /XLD/Michael Jackson And The Jackson 5 - Motown's Greatest Hits 1969-1975 (1992) [FLAC] {Japan}/07 - The Love You Save.flac
Pre-gap length : 00:02:26

Track gain : -2.24 dB
Peak : 0.664429
CRC32 hash (test run) : 27C1605E
CRC32 hash : 27C1605E
CRC32 hash (skip zero) : D0E82557
AccurateRip v1 signature : E567D683
AccurateRip v2 signature : A8F69CCE
->Accurately ripped (v2, confidence 2/2)
Statistics
Read error : 0
Jitter error (maybe fixed) : 0
Retry sector count : 0
Damaged sector count : 0

Track 08
Filename : /XLD/Michael Jackson And The Jackson 5 - Motown's Greatest Hits 1969-1975 (1992) [FLAC] {Japan}/08 - ABC.flac
Pre-gap length : 00:02:41

Track gain : -4.16 dB
Peak : 0.651245
CRC32 hash (test run) : 27E0DD74
CRC32 hash : 27E0DD74
CRC32 hash (skip zero) : BF8C5D8C
AccurateRip v1 signature : 927FDE8F
AccurateRip v2 signature : FD85663C
->Accurately ripped (v2, confidence 2/2)
Statistics
Read error : 0
Jitter error (maybe fixed) : 0
Retry sector count : 0
Damaged sector count : 0

Track 09
Filename : /XLD/Michael Jackson And The Jackson 5 - Motown's Greatest Hits 1969-1975 (1992) [FLAC] {Japan}/09 - Rockin' Robin.flac
Pre-gap length : 00:02:24

Track gain : -2.53 dB
Peak : 0.598816
CRC32 hash (test run) : F381ACBB
CRC32 hash : F381ACBB
CRC32 hash (skip zero) : 05E5BFF4
AccurateRip v1 signature : 781FBF2B
AccurateRip v2 signature : 8EA0195D
->Accurately ripped (v2, confidence 2/2)
Statistics
Read error : 0
Jitter error (maybe fixed) : 0
Retry sector count : 0
Damaged sector count : 0

Track 10
Filename : /XLD/Michael Jackson And The Jackson 5 - Motown's Greatest Hits 1969-1975 (1992) [FLAC] {Japan}/10 - Happy.flac
Pre-gap length : 00:02:41

Track gain : -3.18 dB
Peak : 0.780762
CRC32 hash (test run) : 64AEBB39
CRC32 hash : 64AEBB39
CRC32 hash (skip zero) : 559BB8B0
AccurateRip v1 signature : ACB7200F
AccurateRip v2 signature : D9514D82
->Accurately ripped (v2, confidence 2/2)
Statistics
Read error : 0
Jitter error (maybe fixed) : 0
Retry sector count : 0
Damaged sector count : 0

Track 11
Filename : /XLD/Michael Jackson And The Jackson 5 - Motown's Greatest Hits 1969-1975 (1992) [FLAC] {Japan}/11 - Ben.flac
Pre-gap length : 00:02:24

Track gain : -1.25 dB
Peak : 0.563477
CRC32 hash (test run) : A58C0AE8
CRC32 hash : A58C0AE8
CRC32 hash (skip zero) : 52BB08F8
AccurateRip v1 signature : ED778BF8
AccurateRip v2 signature : 72C2CE44
->Accurately ripped (v2, confidence 2/2)
Statistics
Read error : 0
Jitter error (maybe fixed) : 0
Retry sector count : 0
Damaged sector count : 0

Track 12
Filename : /XLD/Michael Jackson And The Jackson 5 - Motown's Greatest Hits 1969-1975 (1992) [FLAC] {Japan}/12 - Never Can Say Goodbye.flac
Pre-gap length : 00:02:29

Track gain : -2.61 dB
Peak : 0.688507
CRC32 hash (test run) : 29786BC9
CRC32 hash : 29786BC9
CRC32 hash (skip zero) : DDFE4C19
AccurateRip v1 signature : E5553A0D
AccurateRip v2 signature : 863E48E1
->Accurately ripped (v2, confidence 2/2)
Statistics
Read error : 0
Jitter error (maybe fixed) : 0
Retry sector count : 0
Damaged sector count : 0

Track 13
Filename : /XLD/Michael Jackson And The Jackson 5 - Motown's Greatest Hits 1969-1975 (1992) [FLAC] {Japan}/13 - Farewell My Summer Love.flac
Pre-gap length : 00:02:74

Track gain : -1.93 dB
Peak : 0.798004
CRC32 hash (test run) : AA8DEB33
CRC32 hash : AA8DEB33
CRC32 hash (skip zero) : C8707F12
AccurateRip v1 signature : F54617F0
AccurateRip v2 signature : 3A18E475
->Accurately ripped (v2, confidence 2/2)
Statistics
Read error : 0
Jitter error (maybe fixed) : 0
Retry sector count : 0
Damaged sector count : 0

Track 14
Filename : /XLD/Michael Jackson And The Jackson 5 - Motown's Greatest Hits 1969-1975 (1992) [FLAC] {Japan}/14 - I Want You Back (Original Version).flac
Pre-gap length : 00:02:17

Track gain : -4.16 dB
Peak : 0.718445
CRC32 hash (test run) : 747E09AF
CRC32 hash : 747E09AF
CRC32 hash (skip zero) : 6E6D7DA6
AccurateRip v1 signature : DB1DF62E
AccurateRip v2 signature : 4CEF16E1
->Accurately ripped (v2, confidence 2/2)
Statistics
Read error : 0
Jitter error (maybe fixed) : 0
Retry sector count : 0
Damaged sector count : 0

Track 15
Filename : /XLD/Michael Jackson And The Jackson 5 - Motown's Greatest Hits 1969-1975 (1992) [FLAC] {Japan}/15 - Mama's Pearl.flac
Pre-gap length : 00:01:61

Track gain : -2.02 dB
Peak : 0.584412
CRC32 hash (test run) : 469090FE
CRC32 hash : 469090FE
CRC32 hash (skip zero) : 5E51EE2F
AccurateRip v1 signature : EE84ECC5
AccurateRip v2 signature : 00282D0A
->Accurately ripped (v2, confidence 2/2)
Statistics
Read error : 0
Jitter error (maybe fixed) : 0
Retry sector count : 0
Damaged sector count : 0

Track 16
Filename : /XLD/Michael Jackson And The Jackson 5 - Motown's Greatest Hits 1969-1975 (1992) [FLAC] {Japan}/16 - Ain't No Sunshine.flac
Pre-gap length : 00:01:69

Track gain : -0.69 dB
Peak : 0.727386
CRC32 hash (test run) : DC65AD40
CRC32 hash : DC65AD40
CRC32 hash (skip zero) : DAAADFFB
AccurateRip v1 signature : C6689919
AccurateRip v2 signature : F148C243
->Accurately ripped (v2, confidence 2/2)
Statistics
Read error : 0
Jitter error (maybe fixed) : 0
Retry sector count : 0
Damaged sector count : 0

Track 17
Filename : /XLD/Michael Jackson And The Jackson 5 - Motown's Greatest Hits 1969-1975 (1992) [FLAC] {Japan}/17 - Girl You're So Together.flac
Pre-gap length : 00:02:12

Track gain : -2.13 dB
Peak : 0.823151
CRC32 hash (test run) : 62BF3AB5
CRC32 hash : 62BF3AB5
CRC32 hash (skip zero) : ADC2DB10
AccurateRip v1 signature : 9A20FFE7
AccurateRip v2 signature : 7E7575A4
->Accurately ripped (v2, confidence 2/2)
Statistics
Read error : 0
Jitter error (maybe fixed) : 0
Retry sector count : 0
Damaged sector count : 0

Track 18
Filename : /XLD/Michael Jackson And The Jackson 5 - Motown's Greatest Hits 1969-1975 (1992) [FLAC] {Japan}/18 - Hallelujah Day.flac
Pre-gap length : 00:01:47

Track gain : -3.96 dB
Peak : 0.746094
CRC32 hash (test run) : 7CC62632
CRC32 hash : 7CC62632
CRC32 hash (skip zero) : 1856E78E
AccurateRip v1 signature : 48D9860D
AccurateRip v2 signature : AA46F07B
->Accurately ripped (v2, confidence 2/2)
Statistics
Read error : 0
Jitter error (maybe fixed) : 0
Retry sector count : 0
Damaged sector count : 0

Track 19
Filename : /XLD/Michael Jackson And The Jackson 5 - Motown's Greatest Hits 1969-1975 (1992) [FLAC] {Japan}/19 - Skywriter.flac
Pre-gap length : 00:02:52

Track gain : -3.19 dB
Peak : 0.822754
CRC32 hash (test run) : E463B333
CRC32 hash : E463B333
CRC32 hash (skip zero) : 9274A892
AccurateRip v1 signature : 0D3D4FE7
AccurateRip v2 signature : F0934B66
->Accurately ripped (v2, confidence 2/2)
Statistics
Read error : 0
Jitter error (maybe fixed) : 0
Retry sector count : 0
Damaged sector count : 0

Track 20
Filename : /XLD/Michael Jackson And The Jackson 5 - Motown's Greatest Hits 1969-1975 (1992) [FLAC] {Japan}/20 - We're Almost There.flac
Pre-gap length : 00:01:52

Track gain : -2.50 dB
Peak : 0.891693
CRC32 hash (test run) : 9E0DDF9C
CRC32 hash : 9E0DDF9C
CRC32 hash (skip zero) : A294FDC8
AccurateRip v1 signature : A7EB9721
AccurateRip v2 signature : 2EB5EBD1
->Accurately ripped (v2, confidence 2/2)
Statistics
Read error : 0
Jitter error (maybe fixed) : 0
Retry sector count : 0
Damaged sector count : 0

No errors occurred

End of status report

––-BEGIN XLD SIGNATURE––-
OrEIBaXWuQpNmlCjgvz3xVe6JVejpCnYW3hbyFyCMtWp.n2LhqAm4x2AjrAsV4NFtQCkQmhEgW9RIO35UKuizoHaYtvdnvzNXIppBeC
––-END XLD SIGNATURE––-