Subcategories

Michael Kamen & VA - Robin Hood - Prince Of Thieves: Original Motion Picture Soundtrack (1991) [Re-Up]

Posted By: Efgrapha
Michael Kamen & VA - Robin Hood - Prince Of Thieves: Original Motion Picture Soundtrack (1991) [Re-Up]

Michael Kamen & VA - Robin Hood - Prince Of Thieves: Original Motion Picture Soundtrack (1991)
EAC | FLAC (Tracks) + cue.+log ~ 329 Mb | Mp3, CBR320 kbps ~ 149 Mb | Scans included
Soundtrack, Score, Pop/Rock | Label: Edel/Morgan Creek | # 0022492MCM | Time: 01:00:22

The soundtrack for Robin Hood: Prince of Thieves features the original score by Academy Award Nominated Composer Michael Kamen (Die Hard) as well as the Grammy Winning Song '(Everything I Do) I Do It For You'' by Bryan Adams.

This is primarily a score album, though there are a couple of non-orchestral songs represented, most notably Bryan Adams' "Everything I Do," which became a huge hit single around the same time. Most of the works are essentially what you'd expect from a Robin Hood movie – horns, strings, and flutes, all played in a vaguely Old English manner. The rest is mood music. Given that it's a score, the music of course is meant to work well within the confines of the movie's background. Released on its own, it loses some of its power. Still, it sold well due to the Bryan Adams single, which probably needs little or no review of its own. To help capitalize on this single, one notices that the score occasionally returns to themes from the big song. Michael Kamen, known for his forays into mainstream (non-classical) music, while sticking with his full symphony, does some very good work here in evoking the moods of the movie. This is one of the few score-based soundtracks that could possibly stand on its own, though it's still relatively weak when compared to music written to stand alone.

Review by Adam Greenberg, Allmusic.com

Michael Kamen & VA - Robin Hood - Prince Of Thieves: Original Motion Picture Soundtrack (1991) [Re-Up]



Michael Kamen & VA - Robin Hood - Prince Of Thieves: Original Motion Picture Soundtrack (1991) [Re-Up]



Tracklist:

01. Overture And A Prisoner Of The Crusades (From Chains To Freedom) (08:27)
02. Sir Guy Of Gisborne And The Escape To Sherwood (07:27)
03. Little John And The Band In The Forest (04:52)
04. The Sheriff And His Witch (06:03)
05. Maid Marian (02:57)
06. Training - Robin Hood, Prince of Thieves (05:15)
07. Marian At The Waterfall (05:34)
08. The Abduction And The Final Battle At The Gallows (09:53)
09. (Everything I Do) I Do It For You - Bryan Adams (06:38)
10. Wild Times - Jeff Lynne (03:12)


Exact Audio Copy V0.99 prebeta 3 from 28. July 2007

EAC extraction logfile from 29. September 2008, 2:38

Various / Robin Hood: Prince Of Thieves

Used drive : ATAPI DVD A DH16A3L Adapter: 2 ID: 1

Read mode : Secure
Utilize accurate stream : Yes
Defeat audio cache : Yes
Make use of C2 pointers : No

Read offset correction : 6
Overread into Lead-In and Lead-Out : No
Fill up missing offset samples with silence : Yes
Delete leading and trailing silent blocks : No
Null samples used in CRC calculations : Yes
Used interface : Installed external ASPI interface
Gap handling : Appended to previous track

Used output format : User Defined Encoder
Selected bitrate : 192 kBit/s
Quality : High
Add ID3 tag : No
Command line compressor : C:\Program Files\Exact Audio Copy\Flac\flac.exe
Additional command line options : -V -8 -T "artist=%a" -T "title=%t" -T "album=%g" -T "date=%y" -T "tracknumber=%n" -T "genre=%m" %s


TOC of the extracted CD

Track | Start | Length | Start sector | End sector
––––––––––––––––––––––––––––-
1 | 0:00.33 | 8:27.42 | 33 | 38099
2 | 8:28.00 | 7:27.58 | 38100 | 71682
3 | 15:55.58 | 4:52.20 | 71683 | 93602
4 | 20:48.03 | 6:03.45 | 93603 | 120872
5 | 26:51.48 | 2:57.47 | 120873 | 134194
6 | 29:49.20 | 5:15.15 | 134195 | 157834
7 | 35:04.35 | 5:34.38 | 157835 | 182922
8 | 40:38.73 | 9:53.70 | 182923 | 227467
9 | 50:32.68 | 6:38.02 | 227468 | 257319
10 | 57:10.70 | 3:12.28 | 257320 | 271747


Track 1

Filename C:\Users\Nate\Desktop\Work Folder\01. Michael Kamen - Overture And A Prisoner Of The Crusades (From Chains To Freedom).wav

Pre-gap length 0:00:02.44

Peak level 100.0 %
Track quality 100.0 %
Test CRC F7844992
Copy CRC F7844992
Accurately ripped (confidence 4) [AE1402B6]
Copy OK

Track 2

Filename C:\Users\Nate\Desktop\Work Folder\02. Michael Kamen - Sir Guy Of Gisborne And The Escape To Sherwood.wav

Pre-gap length 0:00:03.66

Peak level 97.7 %
Track quality 99.9 %
Test CRC 2DCCD2DE
Copy CRC 2DCCD2DE
Accurately ripped (confidence 4) [47517A0C]
Copy OK

Track 3

Filename C:\Users\Nate\Desktop\Work Folder\03. Michael Kamen - Little John And The Band In The Forest.wav

Pre-gap length 0:00:03.93

Peak level 100.0 %
Track quality 100.0 %
Test CRC 5A584A56
Copy CRC 5A584A56
Accurately ripped (confidence 4) [4F8DA9FC]
Copy OK

Track 4

Filename C:\Users\Nate\Desktop\Work Folder\04. Michael Kamen - The Sheriff And His Witch.wav

Pre-gap length 0:00:03.13

Peak level 77.3 %
Track quality 99.9 %
Test CRC 87E7329F
Copy CRC 87E7329F
Accurately ripped (confidence 4) [A99E988F]
Copy OK

Track 5

Filename C:\Users\Nate\Desktop\Work Folder\05. Michael Kamen - Maid Marian.wav

Pre-gap length 0:00:03.77

Peak level 82.2 %
Track quality 99.9 %
Test CRC 04202EE8
Copy CRC 04202EE8
Accurately ripped (confidence 4) [9C3E1832]
Copy OK

Track 6

Filename C:\Users\Nate\Desktop\Work Folder\06. Michael Kamen - Training - Robin Hood, Prince of Thieves.wav

Pre-gap length 0:00:02.36

Peak level 100.0 %
Track quality 100.0 %
Test CRC E3772E82
Copy CRC E3772E82
Accurately ripped (confidence 3) [8A98CDC6]
Copy OK

Track 7

Filename C:\Users\Nate\Desktop\Work Folder\07. Michael Kamen - Marian At The Waterfall.wav

Pre-gap length 0:00:03.66

Peak level 62.2 %
Track quality 100.0 %
Test CRC FAC463C0
Copy CRC FAC463C0
Accurately ripped (confidence 3) [A75132C2]
Copy OK

Track 8

Filename C:\Users\Nate\Desktop\Work Folder\08. Michael Kamen - The Abduction And The Final Battle At The Gallows.wav

Pre-gap length 0:00:03.97

Peak level 100.0 %
Track quality 100.0 %
Test CRC 56DDF659
Copy CRC 56DDF659
Accurately ripped (confidence 3) [E66897D3]
Copy OK

Track 9

Filename C:\Users\Nate\Desktop\Work Folder\09. Bryan Adams - (Everything I Do) I Do It For You.wav

Peak level 100.0 %
Track quality 100.0 %
Test CRC 3E5CAB25
Copy CRC 3E5CAB25
Accurately ripped (confidence 3) [8A09BB14]
Copy OK

Track 10

Filename C:\Users\Nate\Desktop\Work Folder\10. Jeff Lynne - Wild Times.wav

Pre-gap length 0:00:01.06

Peak level 86.6 %
Track quality 100.0 %
Test CRC 2489BFC2
Copy CRC 2489BFC2
Accurately ripped (confidence 3) [5B02795A]
Copy OK


All tracks accurately ripped

No errors occurred

End of status report

foobar2000 1.2 / Dynamic Range Meter 1.1.1
log date: 2013-07-27 20:40:57

––––––––––––––––––––––––––––––––––––––––
Analyzed: Bryan Adams / Robin Hood: Prince Of Thieves (1)
Jeff Lynne / Robin Hood: Prince Of Thieves (2)
Michael Kamen / Robin Hood: Prince Of Thieves (3-10)
––––––––––––––––––––––––––––––––––––––––

DR Peak RMS Duration Track
––––––––––––––––––––––––––––––––––––––––
DR13 0.00 dB -16.17 dB 6:38 09-(Everything I Do) I Do It For You
DR12 -1.24 dB -15.84 dB 3:12 10-Wild Times
DR12 0.00 dB -16.17 dB 8:28 01-Overture And A Prisoner Of The Crusades (From Chains To Freedom)
DR15 -0.20 dB -20.08 dB 7:28 02-Sir Guy Of Gisborne And The Escape To Sherwood
DR14 0.00 dB -19.53 dB 4:52 03-Little John And The Band In The Forest
DR13 -2.23 dB -22.03 dB 6:04 04-The Sheriff And His Witch
DR12 -1.70 dB -20.85 dB 2:58 05-Maid Marian
DR13 0.00 dB -20.05 dB 5:15 06-Training - Robin Hood, Prince of Thieves
DR13 -4.11 dB -22.61 dB 5:35 07-Marian At The Waterfall
DR14 0.00 dB -17.13 dB 9:54 08-The Abduction And The Final Battle At The Gallows
––––––––––––––––––––––––––––––––––––––––

Number of tracks: 10
Official DR value: DR13

Samplerate: 44100 Hz
Channels: 2
Bits per sample: 16
Bitrate: 803 kbps
Codec: FLAC
================================================================================

Michael Kamen & VA - Robin Hood - Prince Of Thieves: Original Motion Picture Soundtrack (1991) [Re-Up]

Michael Kamen & VA - Robin Hood - Prince Of Thieves: Original Motion Picture Soundtrack (1991) [Re-Up]

All thanks to original uploader

More Movies & Soundtracks in Efgrapha Blog