Tags
Language
Tags

Michael Nesmith - Silver Moon (2002) [Audiophile SBM Gold Disc]

Posted By: Designol
Michael Nesmith - Silver Moon (2002) [Audiophile SBM Gold Disc]

Michael Nesmith - Silver Moon (2002)
EAC | FLAC | Tracks (Cue&Log) ~ 467 Mb | Mp3 (CBR320) ~ 198 Mb | Scans included
Label: Audiophile Legends | # APH 102.821 | Time: 01:17:39
Country-Rock, Folk-Rock, Singer/Songwriter

Although the cover art might suggest that this compiles, features, or in some way includes material from Michael Nesmith's four-year (1966-1970) tenure as a Monkee, this isn't the case at all. Additionally confusing matters is that the same 25 tracks on this collection are replicated – right down to the exact running order – on the unimaginatively titled Best Of: Original Hits. Regardless, the contents of both have been culled from Nesmith's first half-dozen post-Monkees long-players. The tune stack is well represented by the First National Band LPs Magnetic South (1970), Loose Salute (1970), and Nevada Fighter (1971) – plus, to a much lesser extent, Tantamount to Treason (1972), And the Hits Just Keep on Comin' (1972), as well as Pretty Much Your Standard Ranch Stash (1973). Nesmith's penchant for penning quirky country & western-flavored pop songs can be directly traced back to his Monkees material, such as "St. Matthew," "Good Clean Fun," and "Magnolia Simms." During this period he was also woodshedding material for future endeavors. Although never issued, he recorded a significant backlog of original compositions while still a Monkee. Of the tracks included on this collection, "Cripple Lion," "Some of Shelly's Blues," "Calico Girlfriend," "Nine Times Blue," "Hollywood," "Little Red Rider," and "Conversations," originally titled "Carlisle Wheeling" are among the titles first recorded by Nez prior to gaining artistic independence from his decidedly manufactured image. Ultimately, autonomy as a solo artist allowed him to further develop a singular voice rooted in folk and country, yet remaining ever unique. Stylistically, his range became more eclectic – encompassing both driving rockers, such as "Mama Nantucket," and lilting, heartsick ballads, such as "Joanne." This compilation not only visits those extremes, it also hits upon many of the more subtle facets from Nesmith's prolific early-'70s recordings.

Review by Lindsay Planer, Allmusic.com

Michael Nesmith - Silver Moon (2002) [Audiophile SBM Gold Disc]



Tracklist:

01. Silver Moon (3:12)
02. Listen To The Band (2:33)
03. Different Drum (3:02)
04. Some Of Shelly's Blues (3:19)
05. Mama Nantucket (2:41)
06. Harmony Constant (3:47)
07. Grand Ennui (2:09)
08. Bonaparte's Retreat (4:37)
09. I've Just Begun To Care (Propinquity) (2:58)
10. Lady Of The Valley (2:57)
11. First National Rag (0:23)
12. The Keys To The Car (2:55)
13. Two Different Roads (2:40)
14. Nevada Fighter (3:07)
15. I Fall To Pieces (2:56)
16. Rainmaker (3:18)
17. Calico Girlfriend (2:35)
18. Nine Times Blue (1:41)
19. Little Red Rider (2:34)
20. Conversations (3:32)
21. Joanne (3:12)
22. Beyond The Blue Horizon (5:49)
23. Hollywood (5:07)
24. Bye, Bye, Bye (3:24)
25. The Crippled Lion (3:12)


Exact Audio Copy V0.99 prebeta 4 from 23. January 2008

EAC extraction logfile from 27. February 2008, 18:50

Michael Nesmith / Silver Moon

Used drive : TSSTcorpCD/DVDW SH-S162L Adapter: 3 ID: 0

Read mode : Secure
Utilize accurate stream : Yes
Defeat audio cache : Yes
Make use of C2 pointers : No

Read offset correction : 6
Overread into Lead-In and Lead-Out : No
Fill up missing offset samples with silence : Yes
Delete leading and trailing silent blocks : No
Null samples used in CRC calculations : Yes
Used interface : Native Win32 interface for Win NT & 2000
Gap handling : Appended to previous track

Used output format : Internal WAV Routines
Sample format : 44.100 Hz; 16 Bit; Stereo


TOC of the extracted CD

Track | Start | Length | Start sector | End sector
––––––––––––––––––––––––––––-
1 | 0:00.00 | 3:12.15 | 0 | 14414
2 | 3:12.15 | 2:33.37 | 14415 | 25926
3 | 5:45.52 | 3:02.28 | 25927 | 39604
4 | 8:48.05 | 3:18.42 | 39605 | 54496
5 | 12:06.47 | 2:40.55 | 54497 | 66551
6 | 14:47.27 | 3:47.10 | 66552 | 83586
7 | 18:34.37 | 2:08.65 | 83587 | 93251
8 | 20:43.27 | 4:36.53 | 93252 | 114004
9 | 25:20.05 | 2:57.70 | 114005 | 127349
10 | 28:18.00 | 2:56.47 | 127350 | 140596
11 | 31:14.47 | 0:22.48 | 140597 | 142294
12 | 31:37.20 | 2:55.17 | 142295 | 155436
13 | 34:32.37 | 2:39.58 | 155437 | 167419
14 | 37:12.20 | 3:06.52 | 167420 | 181421
15 | 40:18.72 | 2:55.45 | 181422 | 194591
16 | 43:14.42 | 3:18.20 | 194592 | 209461
17 | 46:32.62 | 2:35.00 | 209462 | 221086
18 | 49:07.62 | 1:40.58 | 221087 | 228644
19 | 50:48.45 | 2:33.67 | 228645 | 240186
20 | 53:22.37 | 3:31.43 | 240187 | 256054
21 | 56:54.05 | 3:12.37 | 256055 | 270491
22 | 60:06.42 | 5:49.28 | 270492 | 296694
23 | 65:55.70 | 5:07.30 | 296695 | 319749
24 | 71:03.25 | 3:23.50 | 319750 | 335024
25 | 74:27.00 | 3:12.35 | 335025 | 349459


Track 1

Filename G:\My Rips\Michael Nesmith - Silver Moon (2002) [FLAC]\01 - Silver Moon.wav

Pre-gap length 0:00:02.00

Peak level 92.9 %
Track quality 100.0 %
Test CRC 233FB1EF
Copy CRC 233FB1EF
Track not present in AccurateRip database
Copy OK

Track 2

Filename G:\My Rips\Michael Nesmith - Silver Moon (2002) [FLAC]\02 - Listen To The Band.wav

Pre-gap length 0:00:02.66

Peak level 98.2 %
Track quality 100.0 %
Test CRC 71C7AC5A
Copy CRC 71C7AC5A
Track not present in AccurateRip database
Copy OK

Track 3

Filename G:\My Rips\Michael Nesmith - Silver Moon (2002) [FLAC]\03 - Different Drum.wav

Pre-gap length 0:00:02.16

Peak level 84.3 %
Track quality 100.0 %
Test CRC 494F474C
Copy CRC 494F474C
Track not present in AccurateRip database
Copy OK

Track 4

Filename G:\My Rips\Michael Nesmith - Silver Moon (2002) [FLAC]\04 - Some Of Shelly's Blues.wav

Pre-gap length 0:00:02.17

Peak level 96.5 %
Track quality 99.9 %
Test CRC 1A802D51
Copy CRC 1A802D51
Track not present in AccurateRip database
Copy OK

Track 5

Filename G:\My Rips\Michael Nesmith - Silver Moon (2002) [FLAC]\05 - Mama Nantucket.wav

Pre-gap length 0:00:02.16

Peak level 97.7 %
Track quality 99.9 %
Test CRC C78665AF
Copy CRC C78665AF
Track not present in AccurateRip database
Copy OK

Track 6

Filename G:\My Rips\Michael Nesmith - Silver Moon (2002) [FLAC]\06 - Harmony Constant.wav

Pre-gap length 0:00:02.16

Peak level 82.0 %
Track quality 99.9 %
Test CRC A699DF23
Copy CRC A699DF23
Track not present in AccurateRip database
Copy OK

Track 7

Filename G:\My Rips\Michael Nesmith - Silver Moon (2002) [FLAC]\07 - Grand Ennui.wav

Pre-gap length 0:00:02.16

Peak level 97.5 %
Track quality 100.0 %
Test CRC 6F41E2A2
Copy CRC 6F41E2A2
Track not present in AccurateRip database
Copy OK

Track 8

Filename G:\My Rips\Michael Nesmith - Silver Moon (2002) [FLAC]\08 - Bonaparte's Retreat.wav

Pre-gap length 0:00:02.16

Peak level 89.2 %
Track quality 100.0 %
Test CRC D53B534F
Copy CRC D53B534F
Track not present in AccurateRip database
Copy OK

Track 9

Filename G:\My Rips\Michael Nesmith - Silver Moon (2002) [FLAC]\09 - I've Just Begun To Care (Propinquity).wav

Pre-gap length 0:00:02.13

Peak level 98.1 %
Track quality 100.0 %
Test CRC 87775A41
Copy CRC 87775A41
Track not present in AccurateRip database
Copy OK

Track 10

Filename G:\My Rips\Michael Nesmith - Silver Moon (2002) [FLAC]\10 - Lady Of The Valley.wav

Pre-gap length 0:00:02.28

Peak level 97.8 %
Track quality 99.9 %
Test CRC 4E1F93D8
Copy CRC 4E1F93D8
Track not present in AccurateRip database
Copy OK

Track 11

Filename G:\My Rips\Michael Nesmith - Silver Moon (2002) [FLAC]\11 - First National Rag.wav

Pre-gap length 0:00:02.16

Peak level 97.7 %
Track quality 100.0 %
Test CRC F6868E1E
Copy CRC F6868E1E
Track not present in AccurateRip database
Copy OK

Track 12

Filename G:\My Rips\Michael Nesmith - Silver Moon (2002) [FLAC]\12 - The Keys To The Car.wav

Pre-gap length 0:00:02.17

Peak level 83.9 %
Track quality 100.0 %
Test CRC 6607BA57
Copy CRC 6607BA57
Track not present in AccurateRip database
Copy OK

Track 13

Filename G:\My Rips\Michael Nesmith - Silver Moon (2002) [FLAC]\13 - Two Different Roads.wav

Pre-gap length 0:00:02.13

Peak level 81.6 %
Track quality 100.0 %
Test CRC 7414852F
Copy CRC 7414852F
Track not present in AccurateRip database
Copy OK

Track 14

Filename G:\My Rips\Michael Nesmith - Silver Moon (2002) [FLAC]\14 - Nevada Fighter.wav

Pre-gap length 0:00:02.13

Peak level 96.5 %
Track quality 100.0 %
Test CRC 12B459EF
Copy CRC 12B459EF
Cannot be verified as accurate (confidence 1) [5B4F2527], AccurateRip returned [7201C69B]
Copy OK

Track 15

Filename G:\My Rips\Michael Nesmith - Silver Moon (2002) [FLAC]\15 - I Fall To Pieces.wav

Pre-gap length 0:00:02.13

Peak level 98.7 %
Track quality 100.0 %
Test CRC D60F63B1
Copy CRC D60F63B1
Track not present in AccurateRip database
Copy OK

Track 16

Filename G:\My Rips\Michael Nesmith - Silver Moon (2002) [FLAC]\16 - Rainmaker.wav

Pre-gap length 0:00:02.16

Peak level 84.6 %
Track quality 100.0 %
Test CRC 0588EE93
Copy CRC 0588EE93
Track not present in AccurateRip database
Copy OK

Track 17

Filename G:\My Rips\Michael Nesmith - Silver Moon (2002) [FLAC]\17 - Calico Girlfriend.wav

Pre-gap length 0:00:02.42

Peak level 93.0 %
Track quality 100.0 %
Test CRC E19DD613
Copy CRC E19DD613
Track not present in AccurateRip database
Copy OK

Track 18

Filename G:\My Rips\Michael Nesmith - Silver Moon (2002) [FLAC]\18 - Nine Times Blue.wav

Peak level 93.7 %
Track quality 100.0 %
Test CRC 13E16ACC
Copy CRC 13E16ACC
Track not present in AccurateRip database
Copy OK

Track 19

Filename G:\My Rips\Michael Nesmith - Silver Moon (2002) [FLAC]\19 - Little Red Rider.wav

Peak level 98.8 %
Track quality 100.0 %
Test CRC 57C23A17
Copy CRC 57C23A17
Track not present in AccurateRip database
Copy OK

Track 20

Filename G:\My Rips\Michael Nesmith - Silver Moon (2002) [FLAC]\20 - Conversations.wav

Pre-gap length 0:00:02.16

Peak level 98.8 %
Track quality 100.0 %
Test CRC D2766352
Copy CRC D2766352
Track not present in AccurateRip database
Copy OK

Track 21

Filename G:\My Rips\Michael Nesmith - Silver Moon (2002) [FLAC]\21 - Joanne.wav

Pre-gap length 0:00:02.26

Peak level 97.7 %
Track quality 100.0 %
Test CRC 38E85EA6
Copy CRC 38E85EA6
Track not present in AccurateRip database
Copy OK

Track 22

Filename G:\My Rips\Michael Nesmith - Silver Moon (2002) [FLAC]\22 - Beyond The Blue Horizon.wav

Pre-gap length 0:00:02.16

Peak level 98.8 %
Track quality 100.0 %
Test CRC 28F4E341
Copy CRC 28F4E341
Track not present in AccurateRip database
Copy OK

Track 23

Filename G:\My Rips\Michael Nesmith - Silver Moon (2002) [FLAC]\23 - Hollywood.wav

Pre-gap length 0:00:02.13

Peak level 100.0 %
Track quality 100.0 %
Test CRC DFD85CF2
Copy CRC DFD85CF2
Track not present in AccurateRip database
Copy OK

Track 24

Filename G:\My Rips\Michael Nesmith - Silver Moon (2002) [FLAC]\24 - Bye, Bye, Bye.wav

Pre-gap length 0:00:02.13

Peak level 97.9 %
Track quality 100.0 %
Test CRC 53BBD929
Copy CRC 53BBD929
Track not present in AccurateRip database
Copy OK

Track 25

Filename G:\My Rips\Michael Nesmith - Silver Moon (2002) [FLAC]\25 - The Crippled Lion.wav

Pre-gap length 0:00:01.57

Peak level 94.9 %
Track quality 100.0 %
Test CRC 72E05DC8
Copy CRC 72E05DC8
Track not present in AccurateRip database
Copy OK


1 track(s) could not be verified as accurate
24 track(s) not present in the AccurateRip database

No tracks could be verified as accurate
You may have a different pressing from the one(s) in the database

No errors occurred

End of status report

[CUETools log; Date: 05.04.2017 16:28:54; Version: 2.1.4]
[CTDB TOCID: xVrPIro1wCjJA7w6DPtEoQSYGzg-] found.
Track | CTDB Status
1 | (1/1) Accurately ripped
2 | (1/1) Accurately ripped
3 | (1/1) Accurately ripped
4 | (1/1) Accurately ripped
5 | (1/1) Accurately ripped
6 | (1/1) Accurately ripped
7 | (1/1) Accurately ripped
8 | (1/1) Accurately ripped
9 | (1/1) Accurately ripped
10 | (1/1) Accurately ripped
11 | (1/1) Accurately ripped
12 | (1/1) Accurately ripped
13 | (1/1) Accurately ripped
14 | (1/1) Accurately ripped
15 | (1/1) Accurately ripped
16 | (1/1) Accurately ripped
17 | (1/1) Accurately ripped
18 | (1/1) Accurately ripped
19 | (1/1) Accurately ripped
20 | (1/1) Accurately ripped
21 | (1/1) Accurately ripped
22 | (1/1) Accurately ripped
23 | (1/1) Accurately ripped
24 | (1/1) Accurately ripped
25 | (1/1) Accurately ripped
[AccurateRip ID: 00420983-04a62385-7d123319] found.
Track [ CRC | V2 ] Status
01 [5d643f30|d2164328] (0+3/3) Accurately ripped
02 [c9563b60|6e440b5d] (0+3/3) Accurately ripped
03 [97402f2e|2b1a4774] (0+3/3) Accurately ripped
04 [6ce3ba51|9b12731e] (0+3/3) Accurately ripped
05 [be4e47cc|5f8cb919] (0+3/3) Accurately ripped
06 [18dc24ce|e7744673] (0+3/3) Accurately ripped
07 [af43d080|fbb33ed5] (0+3/3) Accurately ripped
08 [9db1ccf9|f625618a] (0+3/3) Accurately ripped
09 [a6dfe75f|8858ce4a] (0+3/3) Accurately ripped
10 [fe437f94|9dd0dc00] (0+3/3) Accurately ripped
11 [65fe19bc|299b06b2] (0+3/3) Accurately ripped
12 [1e9d5b9e|3b9daa30] (0+3/3) Accurately ripped
13 [5219847d|356b0c70] (0+3/3) Accurately ripped
14 [5b4f2527|eba3ade4] (0+3/5) Accurately ripped
15 [255a2007|afaba996] (0+3/3) Accurately ripped
16 [ef406f74|3b4a2cb6] (0+3/3) Accurately ripped
17 [28b76b87|512b44c7] (0+3/3) Accurately ripped
18 [623dd4e3|43b61037] (0+3/3) Accurately ripped
19 [78217fda|1f158291] (0+3/3) Accurately ripped
20 [f1f32044|190651e6] (0+3/3) Accurately ripped
21 [1d5aa154|ab5726d7] (0+3/3) Accurately ripped
22 [ffe6570e|de347b23] (0+3/3) Accurately ripped
23 [ed3ced92|68f16cd5] (0+3/3) Accurately ripped
24 [d49d60eb|a82ddfe2] (0+3/3) Accurately ripped
25 [8d037e70|6acab0c1] (0+3/3) Accurately ripped
Offsetted by 10:
01 [7cb8db8c] (0/3) No match (V2 was not tested)
02 [896ee9de] (0/3) No match (V2 was not tested)
03 [e82d3f7e] (0/3) No match (V2 was not tested)
04 [626c0265] (0/3) No match (V2 was not tested)
05 [b1422c6e] (0/3) No match (V2 was not tested)
06 [952d1342] (0/3) No match (V2 was not tested)
07 [3d03c63e] (0/3) No match (V2 was not tested)
08 [a1f11875] (0/3) No match (V2 was not tested)
09 [4df0af7b] (0/3) No match (V2 was not tested)
10 [e4b88896] (0/3) No match (V2 was not tested)
11 [0acb1006] (0/3) No match (V2 was not tested)
12 [ca3173ae] (0/3) No match (V2 was not tested)
13 [8e377561] (0/3) No match (V2 was not tested)
14 [7201c69b] (2/5) Accurately ripped
15 [b93e8851] (0/3) No match (V2 was not tested)
16 [85200984] (0/3) No match (V2 was not tested)
17 [06545e64] (0/3) No match (V2 was not tested)
18 [d161fba4] (0/3) No match (V2 was not tested)
19 [a4fa5bc4] (0/3) No match (V2 was not tested)
20 [053a0c28] (0/3) No match (V2 was not tested)
21 [3c880354] (0/3) No match (V2 was not tested)
22 [c873587a] (0/3) No match (V2 was not tested)
23 [e4d73f66] (0/3) No match (V2 was not tested)
24 [875d1321] (0/3) No match (V2 was not tested)
25 [6754790a] (0/3) No match (V2 was not tested)

Track Peak [ CRC32 ] [W/O NULL] [ LOG ]
– 100,0 [35478D5D] [35415EFF]
01 92,9 [233FB1EF] [508D7E9C] CRC32
02 98,2 [71C7AC5A] [9C1F1796] CRC32
03 84,3 [494F474C] [1FFD8589] CRC32
04 96,5 [1A802D51] [5BC712E7] CRC32
05 97,7 [C78665AF] [11EC52F1] CRC32
06 82,0 [A699DF23] [FC3B32CF] CRC32
07 97,5 [6F41E2A2] [655D432B] CRC32
08 89,2 [D53B534F] [F18AC940] CRC32
09 98,1 [87775A41] [C8350368] CRC32
10 97,8 [4E1F93D8] [D97C11DC] CRC32
11 97,7 [F6868E1E] [FDBE64CF] CRC32
12 83,9 [6607BA57] [1648B40D] CRC32
13 81,6 [7414852F] [A0B82F2D] CRC32
14 96,5 [12B459EF] [DD215BAE] CRC32
15 98,7 [D60F63B1] [4CBD267D] CRC32
16 84,6 [0588EE93] [2C76079C] CRC32
17 93,0 [E19DD613] [6F224869] CRC32
18 93,7 [13E16ACC] [5C061297] CRC32
19 98,8 [57C23A17] [37C8AD88] CRC32
20 98,8 [D2766352] [A80F70EA] CRC32
21 97,7 [38E85EA6] [35C8A918] CRC32
22 98,8 [28F4E341] [FC2A95F4] CRC32
23 100,0 [DFD85CF2] [34BE158E] CRC32
24 97,9 [53BBD929] [1A75519E] CRC32
25 94,9 [72E05DC8] [0E6D63D2] CRC32

foobar2000 1.2 / Dynamic Range Meter 1.1.1
log date: 2017-04-05 16:18:39

––––––––––––––––––––––––––––––––––––––––
Analyzed: Michael Nesmith / Silver Moon
––––––––––––––––––––––––––––––––––––––––

DR Peak RMS Duration Track
––––––––––––––––––––––––––––––––––––––––
DR12 -0.63 dB -14.64 dB 3:12 01-Silver Moon
DR12 -0.16 dB -14.40 dB 2:33 02-Listen To The Band
DR11 -1.48 dB -15.16 dB 3:02 03-Different Drum
DR12 -0.31 dB -14.96 dB 3:19 04-Some Of Shelly's Blues
DR12 -0.19 dB -13.60 dB 2:41 05-Mama Nantucket
DR10 -1.72 dB -14.72 dB 3:47 06-Harmony Constant
DR14 -0.21 dB -15.31 dB 2:09 07-Grand Ennui
DR13 -0.99 dB -20.11 dB 4:37 08-Bonaparte's Retreat
DR11 -0.16 dB -14.38 dB 2:58 09-I've Just Begun To Care (Propinquity)
DR11 -0.19 dB -14.33 dB 2:57 10-Lady Of The Valley
DR12 -0.20 dB -16.35 dB 0:23 11-First National Rag
DR12 -1.52 dB -15.84 dB 2:55 12-The Keys To The Car
DR10 -1.77 dB -13.59 dB 2:40 13-Two Different Roads
DR12 -0.30 dB -14.36 dB 3:07 14-Nevada Fighter
DR12 -0.11 dB -13.30 dB 2:56 15-I Fall To Pieces
DR10 -1.45 dB -16.32 dB 3:18 16-Rainmaker
DR11 -0.63 dB -14.71 dB 2:35 17-Calico Girlfriend
DR12 -0.56 dB -15.51 dB 1:41 18-Nine Times Blue
DR12 -0.10 dB -14.09 dB 2:34 19-Little Red Rider
DR13 -0.10 dB -16.04 dB 3:32 20-Conversations
DR14 -0.20 dB -16.75 dB 3:12 21-Joanne
DR13 -0.10 dB -19.17 dB 5:49 22-Beyond The Blue Horizon
DR10 0.00 dB -15.18 dB 5:07 23-Hollywood
DR12 -0.18 dB -14.81 dB 3:24 24-Bye, Bye, Bye
DR12 -0.45 dB -14.44 dB 3:12 25-The Crippled Lion
––––––––––––––––––––––––––––––––––––––––

Number of tracks: 25
Official DR value: DR12

Samplerate: 44100 Hz
Channels: 2
Bits per sample: 16
Bitrate: 810 kbps
Codec: FLAC
================================================================================

Michael Nesmith - Silver Moon (2002) [Audiophile SBM Gold Disc]

Michael Nesmith - Silver Moon (2002) [Audiophile SBM Gold Disc]

All thanks to original releaser - kikokakuke

More interesting music in My Blog