Tags
Language
Tags

Michael Stearns & Ron Sunsinger - Sorcerer (2000)

Posted By: gribovar
Michael Stearns & Ron Sunsinger - Sorcerer (2000)

Michael Stearns & Ron Sunsinger - Sorcerer (2000)
EAC Rip | FLAC (tracks+.cue+log) - 270 MB | MP3 CBR 320 kbps (LAME 3.93) - 138 MB | Covers (7 MB) included
Genre: Ambient | RAR 3% Rec. | Label: Spotted Peccary (SPM-D1101)

After being silent for six years, Michael Stearns returned with the full-length experimental ambient album Sorcerer in September of 2000. The album was inspired by spiritual writing from Carlos Castaneda, resulting in a dark, abstract world created by Stearns and Ron Sunsinger using environmental sounds, bowed metal, and acoustic instruments. The result: Sorcerer is a highly abstract piecing together of noises, absent of beats or melodies.
Tracklist:
01. The Little Smoke
02. Flyers: The Landing of Inorganic Life
03. Portal
04. Between Parallel Lines
05. Journey to the Underworld
06. The Realm of Magical Beings
07. Sendero
08. The Eagles Emanations
09. Humito Final
10. Cicharisca: Finding The Path With Heart

Total time: 53:51

Exact Audio Copy V0.99 prebeta 5 from 4. May 2009

EAC extraction logfile from 27. June 2010, 10:12

Michael Stearns & Ron Sunsinger / Sorcerer

Used drive : PLEXTOR DVDR PX-800A Adapter: 0 ID: 0

Read mode : Secure
Utilize accurate stream : Yes
Defeat audio cache : Yes
Make use of C2 pointers : No

Read offset correction : 48
Overread into Lead-In and Lead-Out : No
Fill up missing offset samples with silence : Yes
Delete leading and trailing silent blocks : No
Null samples used in CRC calculations : Yes
Used interface : Native Win32 interface for Win NT & 2000
Gap handling : Appended to previous track

Used output format : User Defined Encoder
Selected bitrate : 1024 kBit/s
Quality : High
Add ID3 tag : No
Command line compressor : C:\Program Files\Exact Audio Copy\FLAC\FLAC.EXE
Additional command line options : -6 -V -T "ARTIST=%a" -T "TITLE=%t" -T "ALBUM=%g" -T "DATE=%y" -T "TRACKNUMBER=%n" -T "GENRE=%m" -T "COMMENT=%e" %s -o %d


TOC of the extracted CD

Track | Start | Length | Start sector | End sector
––––––––––––––––––––––––––––-
1 | 0:00.00 | 4:08.60 | 0 | 18659
2 | 4:08.60 | 6:21.14 | 18660 | 47248
3 | 10:29.74 | 5:07.17 | 47249 | 70290
4 | 15:37.16 | 1:48.64 | 70291 | 78454
5 | 17:26.05 | 8:54.06 | 78455 | 118510
6 | 26:20.11 | 6:51.39 | 118511 | 149374
7 | 33:11.50 | 2:43.14 | 149375 | 161613
8 | 35:54.64 | 6:52.25 | 161614 | 192538
9 | 42:47.14 | 1:45.27 | 192539 | 200440
10 | 44:32.41 | 9:19.04 | 200441 | 242369


Track 1

Filename C:\Temp\01. Michael Stearns & Ron Sunsinger - The Little Smoke.wav

Pre-gap length 0:00:02.00

Peak level 96.6 %
Track quality 100.0 %
Test CRC E38C3C17
Copy CRC E38C3C17
Accurately ripped (confidence 3) [16659536]
Copy OK

Track 2

Filename C:\Temp\02. Michael Stearns & Ron Sunsinger - Flyers- The Landing of Inorganic Life.wav

Pre-gap length 0:00:00.60

Peak level 96.6 %
Track quality 99.9 %
Test CRC 0796C4C6
Copy CRC 0796C4C6
Accurately ripped (confidence 3) [7BD06E9D]
Copy OK

Track 3

Filename C:\Temp\03. Michael Stearns & Ron Sunsinger - Portal.wav

Pre-gap length 0:00:05.60

Peak level 96.6 %
Track quality 100.0 %
Test CRC C8F1091E
Copy CRC C8F1091E
Accurately ripped (confidence 3) [55EE2067]
Copy OK

Track 4

Filename C:\Temp\04. Michael Stearns & Ron Sunsinger - Between Parallel Lines.wav

Pre-gap length 0:00:05.20

Peak level 96.6 %
Track quality 100.0 %
Test CRC E29FDF36
Copy CRC E29FDF36
Accurately ripped (confidence 3) [2C20D6A2]
Copy OK

Track 5

Filename C:\Temp\05. Michael Stearns & Ron Sunsinger - Journey to the Underworld.wav

Pre-gap length 0:00:04.60

Peak level 96.6 %
Track quality 100.0 %
Test CRC E7D481FC
Copy CRC E7D481FC
Accurately ripped (confidence 3) [E59E16DA]
Copy OK

Track 6

Filename C:\Temp\06. Michael Stearns & Ron Sunsinger - The Realm of Magical Beings.wav

Pre-gap length 0:00:00.80

Peak level 96.5 %
Track quality 100.0 %
Test CRC 996F1257
Copy CRC 996F1257
Accurately ripped (confidence 3) [377EA22E]
Copy OK

Track 7

Filename C:\Temp\07. Michael Stearns & Ron Sunsinger - Sendero.wav

Pre-gap length 0:00:04.80

Peak level 96.5 %
Track quality 100.0 %
Test CRC A6E0E7DF
Copy CRC A6E0E7DF
Accurately ripped (confidence 3) [5CE13BFE]
Copy OK

Track 8

Filename C:\Temp\08. Michael Stearns & Ron Sunsinger - The Eagles Emanations.wav

Pre-gap length 0:00:03.60

Peak level 96.6 %
Track quality 100.0 %
Test CRC 171ED792
Copy CRC 171ED792
Accurately ripped (confidence 3) [5918BD73]
Copy OK

Track 9

Filename C:\Temp\09. Michael Stearns & Ron Sunsinger - Humito Final.wav

Pre-gap length 0:00:06.60

Peak level 96.6 %
Track quality 100.0 %
Test CRC 9D73E65D
Copy CRC 9D73E65D
Accurately ripped (confidence 3) [B1CEECB8]
Copy OK

Track 10

Filename C:\Temp\10. Michael Stearns & Ron Sunsinger - Cicharisca- Finding The Path With Heart.wav

Pre-gap length 0:00:05.60

Peak level 96.6 %
Track quality 100.0 %
Test CRC B91BEFE7
Copy CRC B91BEFE7
Accurately ripped (confidence 3) [AC400E4B]
Copy OK


All tracks accurately ripped

No errors occurred

End of status report

[CUETools log; Date: 15.12.2020 14:30:35; Version: 2.1.4]
[CTDB TOCID: Hf496N_vyssWF2vFe8d0M3PAXnA-] found.
Track | CTDB Status
1 | (13/14) Accurately ripped
2 | (13/14) Accurately ripped
3 | (13/14) Accurately ripped
4 | (13/14) Accurately ripped
5 | (13/14) Accurately ripped
6 | (13/14) Accurately ripped
7 | (13/14) Accurately ripped
8 | (13/14) Accurately ripped
9 | (13/14) Accurately ripped
10 | (13/14) Accurately ripped
[AccurateRip ID: 00138611-009d3fa1-920c9f0a] found.
Track [ CRC | V2 ] Status
01 [16659536|863473b0] (05+06/11) Accurately ripped
02 [7bd06e9d|9e27da53] (05+06/11) Accurately ripped
03 [55ee2067|631b8839] (05+06/11) Accurately ripped
04 [2c20d6a2|61becec7] (05+06/11) Accurately ripped
05 [e59e16da|f97d9fbc] (05+06/11) Accurately ripped
06 [377ea22e|3e606678] (05+06/11) Accurately ripped
07 [5ce13bfe|39a2655c] (05+06/11) Accurately ripped
08 [5918bd73|71bf98ac] (05+06/11) Accurately ripped
09 [b1ceecb8|992216ec] (05+06/11) Accurately ripped
10 [ac400e4b|391babd2] (05+06/11) Accurately ripped

Track Peak [ CRC32 ] [W/O NULL] [ LOG ]
– 96,6 [FA79027A] [B68ADF4C]
01 96,6 [E38C3C17] [74258642] CRC32
02 96,5 [0796C4C6] [AB85CBA8] CRC32
03 96,6 [C8F1091E] [AE0D5442] CRC32
04 96,5 [E29FDF36] [5669A2AE] CRC32
05 96,6 [E7D481FC] [91B8F89A] CRC32
06 96,5 [996F1257] [CD48EE68] CRC32
07 96,5 [A6E0E7DF] [CFE68640] CRC32
08 96,6 [171ED792] [78439EEC] CRC32
09 96,6 [9D73E65D] [EF79DCAF] CRC32
10 96,6 [B91BEFE7] [CDCFB608] CRC32

Thanks to Holon (ariom)

See also: