Subcategories

Michel Portal, Stephen Kent, Mino Cinelu - Burundi (2000) {PAO Records}

Posted By: tiburon
Michel Portal, Stephen Kent, Mino Cinelu - Burundi (2000) {PAO Records}

Michel Portal, Stephen Kent, Mino Cinelu - Burundi (2000) {PAO Records}
EAC 0.99pb4 | FLAC tracks level 8 | Cue+Log+M3U | Full Scans 300dpi | 421MB + 5% Recovery
MP3 CBR 320 Kbps | 180MB + 5% Recovery
Genre: Ethnic Fusion
Michel Portal, Stephen Kent, Mino Cinelu - Burundi (2000) {PAO Records}

Cette année là, notre compteur affiche un nombre vertigineux d'heures passées à nous laisser bercer par le bourdonnement du didgeridoo de Stephen Kent. Si certains morceaux comme impro évoquent inévitablement le carnet de route de Romano, Sclavis et Texier, la nature même de la section rythmique (percussions, didgeridoo) permet à l'ensemble de s'en émanciper. Michel Portal retrouve ici un vieux complice: Mino Cinelu (turbulence, men's land).
Track List
01. Burundi (Michel Portal / Stephen Kent) (3:46)
02. Impro (Michel Portal / Stephen Kent / Mino Cinelu) (4:00)
03. Solitudes (Michel Portal) (5:23)
04. Pigmee (Michel Portal) (6:36)
05. Djembe 1 (Mino Cinelu) (0:51)
06. Calimba (Mino Cinelu) (7:58)
07. Didg3 (Stephen Kent) (3:21)
08. Mino2 (Mino Cinelu) (7:52)
09. Canon (Stephen Kent) (6:36)
10. Milesruns (Michel Portal / Stephen Kent / Mino Cinelu) (13:57)
11. Djembe2 (Mino Cinelu) (0:34)
12. No Parking (Michel Portal) (8:43)
13. Didg2 (Stephen Kent) (3:08)

musicians
Michel Portal - soprano saxophone, bass clarinet
Stephen Kent - didgeridoo, percussion, cello
Mino Cinelu - percussion, vocals

Produced by Di Silvio Vitale, Mino Cinelu and Paul Zauner


Exact Audio Copy V0.99 prebeta 4 from 23. January 2008

EAC extraction logfile from 7. May 2011, 15:13

Michel Portal, Stephen Kent, Mino Cinelu / Burundi

Used drive : Optiarc DVD RW AD-7260S Adapter: 2 ID: 0

Read mode : Secure
Utilize accurate stream : Yes
Defeat audio cache : Yes
Make use of C2 pointers : No

Read offset correction : 48
Overread into Lead-In and Lead-Out : No
Fill up missing offset samples with silence : Yes
Delete leading and trailing silent blocks : No
Null samples used in CRC calculations : Yes
Used interface : Installed external ASPI interface
Gap handling : Appended to previous track

Used output format : User Defined Encoder
Selected bitrate : 128 kBit/s
Quality : High
Add ID3 tag : No
Command line compressor : D:\Program Files\Exact Audio Copy\Flac\flac.exe
Additional command line options : -8 -V -T "ARTIST=%a" -T "TITLE=%t" -T "ALBUM=%g" -T "DATE=%y" -T "TRACKNUMBER=%n" -T "GENRE=%m" -T "COMMENT=EAC FLAC -8" %s


TOC of the extracted CD

Track | Start | Length | Start sector | End sector
––––––––––––––––––––––––––––-
1 | 0:00.00 | 3:49.68 | 0 | 17242
2 | 3:49.68 | 4:03.14 | 17243 | 35481
3 | 7:53.07 | 5:26.04 | 35482 | 59935
4 | 13:19.11 | 6:39.64 | 59936 | 89924
5 | 19:59.00 | 0:54.74 | 89925 | 94048
6 | 20:53.74 | 8:01.62 | 94049 | 130185
7 | 28:55.61 | 3:24.04 | 130186 | 145489
8 | 32:19.65 | 7:55.13 | 145490 | 181127
9 | 40:15.03 | 6:34.22 | 181128 | 210699
10 | 46:49.25 | 14:00.09 | 210700 | 273708
11 | 60:49.34 | 0:37.06 | 273709 | 276489
12 | 61:26.40 | 8:46.00 | 276490 | 315939
13 | 70:12.40 | 3:08.17 | 315940 | 330056


Track 1

Filename G:\TORRENTS.ru_Audio CD_rip by readab\Michel Portal, Stephen Kent, Mino Cinelu - Burundi (2000)\Michel Portal, Stephen Kent, Mino Cinelu - Burundi (2000)\01 - Burundi.wav

Pre-gap length 0:00:02.00

Peak level 97.7 %
Track quality 100.0 %
Test CRC 6017E7D8
Copy CRC 6017E7D8
Accurately ripped (confidence 4) [A03CA5EF]
Copy OK

Track 2

Filename G:\TORRENTS.ru_Audio CD_rip by readab\Michel Portal, Stephen Kent, Mino Cinelu - Burundi (2000)\Michel Portal, Stephen Kent, Mino Cinelu - Burundi (2000)\02 - Impro.wav

Pre-gap length 0:00:03.00

Peak level 97.7 %
Track quality 100.0 %
Test CRC 947B6EF4
Copy CRC 947B6EF4
Accurately ripped (confidence 4) [563F9782]
Copy OK

Track 3

Filename G:\TORRENTS.ru_Audio CD_rip by readab\Michel Portal, Stephen Kent, Mino Cinelu - Burundi (2000)\Michel Portal, Stephen Kent, Mino Cinelu - Burundi (2000)\03 - Solitudes.wav

Pre-gap length 0:00:03.00

Peak level 97.7 %
Track quality 100.0 %
Test CRC 8C54EBC5
Copy CRC 8C54EBC5
Accurately ripped (confidence 4) [084D8B21]
Copy OK

Track 4

Filename G:\TORRENTS.ru_Audio CD_rip by readab\Michel Portal, Stephen Kent, Mino Cinelu - Burundi (2000)\Michel Portal, Stephen Kent, Mino Cinelu - Burundi (2000)\04 - Pigmee.wav

Pre-gap length 0:00:03.00

Peak level 97.7 %
Track quality 100.0 %
Test CRC F4888348
Copy CRC F4888348
Accurately ripped (confidence 4) [45451AFB]
Copy OK

Track 5

Filename G:\TORRENTS.ru_Audio CD_rip by readab\Michel Portal, Stephen Kent, Mino Cinelu - Burundi (2000)\Michel Portal, Stephen Kent, Mino Cinelu - Burundi (2000)\05 - Djembe 1.wav

Pre-gap length 0:00:03.00

Peak level 97.7 %
Track quality 100.0 %
Test CRC 71461A4A
Copy CRC 71461A4A
Accurately ripped (confidence 4) [DEF11FE8]
Copy OK

Track 6

Filename G:\TORRENTS.ru_Audio CD_rip by readab\Michel Portal, Stephen Kent, Mino Cinelu - Burundi (2000)\Michel Portal, Stephen Kent, Mino Cinelu - Burundi (2000)\06 - Calimba.wav

Pre-gap length 0:00:03.00

Peak level 97.7 %
Track quality 99.9 %
Test CRC 80BA715E
Copy CRC 80BA715E
Accurately ripped (confidence 4) [7B3ECC3C]
Copy OK

Track 7

Filename G:\TORRENTS.ru_Audio CD_rip by readab\Michel Portal, Stephen Kent, Mino Cinelu - Burundi (2000)\Michel Portal, Stephen Kent, Mino Cinelu - Burundi (2000)\07 - Didg3.wav

Pre-gap length 0:00:03.00

Peak level 97.7 %
Track quality 100.0 %
Test CRC 2491E384
Copy CRC 2491E384
Accurately ripped (confidence 4) [8DE8762E]
Copy OK

Track 8

Filename G:\TORRENTS.ru_Audio CD_rip by readab\Michel Portal, Stephen Kent, Mino Cinelu - Burundi (2000)\Michel Portal, Stephen Kent, Mino Cinelu - Burundi (2000)\08 - Mino2.wav

Pre-gap length 0:00:03.00

Peak level 97.7 %
Track quality 99.9 %
Test CRC BED4CC6B
Copy CRC BED4CC6B
Accurately ripped (confidence 4) [FC2B1BA9]
Copy OK

Track 9

Filename G:\TORRENTS.ru_Audio CD_rip by readab\Michel Portal, Stephen Kent, Mino Cinelu - Burundi (2000)\Michel Portal, Stephen Kent, Mino Cinelu - Burundi (2000)\09 - Canon.wav

Pre-gap length 0:00:03.00

Peak level 100.0 %
Track quality 100.0 %
Test CRC 3DC3A859
Copy CRC 3DC3A859
Accurately ripped (confidence 4) [E00B131E]
Copy OK

Track 10

Filename G:\TORRENTS.ru_Audio CD_rip by readab\Michel Portal, Stephen Kent, Mino Cinelu - Burundi (2000)\Michel Portal, Stephen Kent, Mino Cinelu - Burundi (2000)\10 - Milesruns.wav

Pre-gap length 0:00:03.00

Peak level 97.7 %
Track quality 99.9 %
Test CRC 5589B81D
Copy CRC 5589B81D
Accurately ripped (confidence 4) [CEB8BBB6]
Copy OK

Track 11

Filename G:\TORRENTS.ru_Audio CD_rip by readab\Michel Portal, Stephen Kent, Mino Cinelu - Burundi (2000)\Michel Portal, Stephen Kent, Mino Cinelu - Burundi (2000)\11 - Djembe2.wav

Pre-gap length 0:00:03.00

Peak level 97.7 %
Track quality 100.0 %
Test CRC 9620CBBF
Copy CRC 9620CBBF
Accurately ripped (confidence 4) [2FC7BF69]
Copy OK

Track 12

Filename G:\TORRENTS.ru_Audio CD_rip by readab\Michel Portal, Stephen Kent, Mino Cinelu - Burundi (2000)\Michel Portal, Stephen Kent, Mino Cinelu - Burundi (2000)\12 - No Parking.wav

Pre-gap length 0:00:03.00

Peak level 97.7 %
Track quality 99.9 %
Test CRC FC5B7091
Copy CRC FC5B7091
Accurately ripped (confidence 3) [9343F499]
Copy OK

Track 13

Filename G:\TORRENTS.ru_Audio CD_rip by readab\Michel Portal, Stephen Kent, Mino Cinelu - Burundi (2000)\Michel Portal, Stephen Kent, Mino Cinelu - Burundi (2000)\13 - Didg2.wav

Pre-gap length 0:00:03.00

Peak level 97.7 %
Track quality 100.0 %
Test CRC BE8C151B
Copy CRC BE8C151B
Accurately ripped (confidence 4) [38B6B671]
Copy OK


All tracks accurately ripped

No errors occurred

End of status report


––––––––––––––––––––––––––––––––––––––––
Analyzed: Michel Portal, Stephen Kent, Mino Cinelu / Burundi
––––––––––––––––––––––––––––––––––––––––

DR Peak RMS Duration Track
––––––––––––––––––––––––––––––––––––––––
DR10 -0.20 dB -12.99 dB 3:50 01-Burundi
DR9 -0.20 dB -11.36 dB 4:03 02-Impro
DR11 -0.20 dB -14.08 dB 5:26 03-Solitudes
DR8 -0.20 dB -12.48 dB 6:40 04-Pigmee
DR14 -0.20 dB -17.15 dB 0:55 05-Djembe 1
DR9 -0.20 dB -11.94 dB 8:02 06-Calimba
DR11 -0.20 dB -13.38 dB 3:24 07-Didg3
DR7 -0.20 dB -10.23 dB 7:55 08-Mino2
DR9 0.00 dB -12.58 dB 6:34 09-Canon
DR15 -0.20 dB -18.22 dB 14:00 10-Milesruns
DR15 -0.20 dB -18.22 dB 0:37 11-Djembe2
DR10 -0.20 dB -11.80 dB 8:46 12-No Parking
DR8 -0.20 dB -12.65 dB 3:08 13-Didg2
––––––––––––––––––––––––––––––––––––––––

Number of tracks: 13
Official DR value: DR10

Samplerate: 44100 Hz
Channels: 2
Bits per sample: 16
Bitrate: 648 kbps
Codec: FLAC
================================================================================

Michel Portal, Stephen Kent, Mino Cinelu - Burundi (2000) {PAO Records}
Michel Portal, Stephen Kent, Mino Cinelu - Burundi (2000) {PAO Records}
Michel Portal, Stephen Kent, Mino Cinelu - Burundi (2000) {PAO Records}


Thanks to the original ripper