Tags
Language
Tags

Mick Jagger: She's The Boss `85 & Primitive Cool `87 & Wandering Spirit `93 [Japanese Ed.]

Posted By: v3122
Mick Jagger: She's The Boss `85 & Primitive Cool `87 & Wandering Spirit `93 [Japanese Ed.]

Mick Jagger: She's The Boss `85 & Primitive Cool `87 & Wandering Spirit `93
EAC | Flac(Image) + Cue + Log & MP3 CBR 320Kbps
3CD | label: Various | ~ 1010 or 353 Mb | Scans(jpg) -> 6 Mb
Pop Rock / Classic Rock / Rock & Roll

Sir Michael Philip Jagger (born 26 July 1943), known professionally as Mick Jagger, is an English singer-songwriter, musician, composer and actor who gained fame as the lead singer and one of the founder members of the Rolling Stones. Jagger's career has spanned over five decades, and he has been described as "one of the most popular and influential frontmen in the history of rock & roll". His distinctive voice and performances, along with Keith Richards' guitar style have been the trademark of the Rolling Stones throughout the band's career. Jagger gained press notoriety for his admitted drug use and romantic involvements, and was often portrayed as a countercultural figure.

Jagger was born and grew up in Dartford, Kent. He studied at the London School of Economics before abandoning his academic career to join the Rolling Stones. Jagger has written most of the Rolling Stones' songs together with Richards, and they continue to collaborate musically. In the late 1960s, Jagger began acting in films (starting with Performance and Ned Kelly), to a mixed reception. He began a solo career in 1985, releasing his first album, She's the Boss, and joined the electric supergroup SuperHeavy in 2009. Relationships with the Stones' members, particularly Richards, deteriorated during the 1980s, but Jagger has always found more success with the band than with his solo and side projects.

In 1989, Jagger was inducted into the Rock and Roll Hall of Fame, and in 2004 into the UK Music Hall of Fame with the Rolling Stones. As member of the Stones, and as solo artist, he reached number one on the UK and US singles charts with 13 singles, the Top 10 with 32 singles and the Top 40 with 70 singles. In 2003, he was knighted for his services to popular music.

Jagger has been married (and divorced) once, and has also had several other relationships. Jagger has eight children with five women. He also has five grandchildren, and became a great-grandfather on 19 May 2014, when his daughter Jade's daughter, Assisi, gave birth to a daughter. Jagger's net worth has been estimated at $360 million…

~ wiki
Mick Jagger: She's The Boss `85 & Primitive Cool `87 & Wandering Spirit `93:

Mick Jagger: She's The Boss `85 & Primitive Cool `87 & Wandering Spirit `93 [Japanese Ed.]

Tracklist CD1 - 1985 - She's The Boss (CBS SONY 32DP 213 Japan):

01. Lonely At The Top (Mick Jagger, Keith Richards) 03:46
02. 1/2 A Loaf 04:58
03. Running Out Of Luck 04:15
04. Turn The Girl Loose 03:54
05. Hard Woman 04:26
06. Just Another Night 05:16
07. Lucky In Love (Mick Jagger, Carlos Alomar) 06:13
08. Secrets 05:02
09. She's The Boss (Mick Jagger, Carlos Alomar) 05:15

Exact Audio Copy V1.0 beta 3 from 29. August 2011

Отчёт EAC об извлечении, выполненном 20. октября 2013, 11:28

Mick Jagger / She's The Boss

Дисковод: MATSHITADVD-RAM UJ8B1AS Adapter: 0 ID: 1

Режим чтения : Достоверность
Использование точного потока : Да
Отключение кэша аудио : Да
Использование указателей C2 : Нет

Коррекция смещения при чтении : 6
Способность читать области Lead-in и Lead-out : Нет
Заполнение пропущенных сэмплов тишиной : Да
Удаление блоков с тишиной в начале и конце : Нет
При вычислениях CRC использовались нулевые сэмплы : Да
Интерфейс : Встроенный Win32-интерфейс для Win NT/2000

Выходной формат : Пользовательский кодировщик
Выбранный битрейт : 768 kBit/s
Качество : Высокий
Добавление ID3-тега : Нет
Утилита сжатия : C:\Program Files (x86)\Exact Audio Copy\FLAC\FLAC.EXE
Дополнительные параметры : -6 -V -T "ARTIST=%artist%" -T "TITLE=%title%" -T "ALBUM=%albumtitle%" -T "DATE=%year%" -T "TRACKNUMBER=%tracknr%" -T "GENRE=%genre%" -T "COMMENT=%comment%" -T "BAND=%albuminterpret%" -T "COMPOSER=%composer%" %haslyrics%–tag-from-file=LYRICS="%lyricsfile%"%haslyrics% -T "DISCNUMBER=%cdnumber%" -T "TOTALDISCS=%totalcds%" -T "TOTALTRACKS=%numtracks%" %hascover%–picture="%coverfile%"%hascover% %source% -o %dest%


TOC извлечённого CD

Трек | Старт | Длительность | Начальный сектор | Конечный сектор
––––––––––––––––––––––––––––––––––-
1 | 0:00.00 | 3:46.72 | 0 | 17021
2 | 3:46.72 | 4:58.53 | 17022 | 39424
3 | 8:45.50 | 4:15.37 | 39425 | 58586
4 | 13:01.12 | 3:54.65 | 58587 | 76201
5 | 16:56.02 | 4:26.68 | 76202 | 96219
6 | 21:22.70 | 5:16.27 | 96220 | 119946
7 | 26:39.22 | 6:13.70 | 119947 | 147991
8 | 32:53.17 | 5:02.25 | 147992 | 170666
9 | 37:55.42 | 5:15.60 | 170667 | 194351


Характеристики диапазона извлечения и сообщения об ошибках

Выбранный диапазон

Имя файла D:\Gh@nz\ALBUMS\Mick Jagger 1985 She's The Boss CBSSony Japan 32DP 213\Mick Jagger - She's The Boss.wav

Пиковый уровень 100.0 %
Скорость извлечения 4.2 X
Качество диапазона 100.0 %
CRC теста E837B755
CRC копии E837B755
Копирование… OK

Ошибок не произошло


AccurateRip: сводка

Трек 1 : извлечено точно (доверие 31) [F4A1BB8F] (AR v2)
Трек 2 : извлечено точно (доверие 31) [5F82297C] (AR v2)
Трек 3 : извлечено точно (доверие 31) [3F404003] (AR v2)
Трек 4 : извлечено точно (доверие 29) [EDA7407E] (AR v2)
Трек 5 : извлечено точно (доверие 30) [3372557C] (AR v2)
Трек 6 : извлечено точно (доверие 31) [5DC421D1] (AR v2)
Трек 7 : извлечено точно (доверие 31) [B50C9930] (AR v2)
Трек 8 : извлечено точно (доверие 31) [23F37B2B] (AR v2)
Трек 9 : извлечено точно (доверие 31) [0809BE61] (AR v2)

Все треки извлечены точно

Конец отчёта

==== Контрольная сумма отчёта 9910D7E397A5D3BAC0F0FB5AF280B0831943B47DD52882027C2DA1C6DE8E9DFC ====


[CUETools log; Date: 24.10.2013 10:38:16; Version: 2.1.4]
[CTDB TOCID: OXiWWSvcyFZ28oXkkINg_fBsBp8-] found.
Track | CTDB Status
1 | (23/23) Accurately ripped
2 | (23/23) Accurately ripped
3 | (23/23) Accurately ripped
4 | (22/23) Accurately ripped
5 | (22/23) Accurately ripped
6 | (23/23) Accurately ripped
7 | (23/23) Accurately ripped
8 | (23/23) Accurately ripped
9 | (23/23) Accurately ripped
[AccurateRip ID: 000e0b5e-00687e56-770a1f09] found.
Track [ CRC | V2 ] Status
01 [177214a2|f4a1bb8f] (52+31/83) Accurately ripped
02 [9784ea37|5f82297c] (51+31/82) Accurately ripped
03 [65ca717d|3f404003] (51+31/84) Accurately ripped
04 [323b9fc6|eda7407e] (50+29/81) Accurately ripped
05 [f751f6df|3372557c] (53+30/85) Accurately ripped
06 [f30bcd1b|5dc421d1] (53+31/86) Accurately ripped
07 [b0f28152|b50c9930] (52+31/85) Accurately ripped
08 [c1d0c729|23f37b2b] (51+31/84) Accurately ripped
09 [ff04c052|0809be61] (50+31/83) Accurately ripped

Track Peak [ CRC32 ] [W/O NULL] [ LOG ]
– 100,0 [E837B755] [1C6B4FC4] CRC32
01 97,8 [4300C298] [4A3DB910]
02 97,9 [4C5F7E92] [E1859367]
03 81,3 [5ECD80F0] [1EE89E12]
04 100,0 [9509B68C] [8EFFC737]
05 100,0 [204EDD19] [546552A4]
06 100,0 [615D3798] [CECD5658]
07 92,4 [5EF60EFB] [3BF5D986]
08 100,0 [94178581] [71859DEE]
09 100,0 [FEBDF427] [EB0EE9F8]


Mick Jagger: She's The Boss `85 & Primitive Cool `87 & Wandering Spirit `93 [Japanese Ed.]

Tracklist CD2 - 1987 - Primitive Cool (CBS SONY 32DP 810 Japan):

01. Throwaway 05:03
02. Let's Work (Mick Jagger, David A. Stewart) 04:50
03. Radio Control 03:56
04. Say You Will (Mick Jagger, David A. Stewart) 05:07
05. Primitive Cool 05:49
06. Kow Tow (Mick Jagger, David A. Stewart) 04:54
07. Shoot Off Your Mouth 03:34
08. Peace ForThe Wicked 04:03
09. Party Doll 05:19
10. War Baby 06:40

Exact Audio Copy V1.0 beta 3 from 29. August 2011

Отчёт EAC об извлечении, выполненном 20. октября 2013, 8:52

Mick Jagger / Primitive Cool

Дисковод: MATSHITADVD-RAM UJ8B1AS Adapter: 0 ID: 1

Режим чтения : Достоверность
Использование точного потока : Да
Отключение кэша аудио : Да
Использование указателей C2 : Нет

Коррекция смещения при чтении : 6
Способность читать области Lead-in и Lead-out : Нет
Заполнение пропущенных сэмплов тишиной : Да
Удаление блоков с тишиной в начале и конце : Нет
При вычислениях CRC использовались нулевые сэмплы : Да
Интерфейс : Встроенный Win32-интерфейс для Win NT/2000

Выходной формат : Пользовательский кодировщик
Выбранный битрейт : 768 kBit/s
Качество : Высокий
Добавление ID3-тега : Нет
Утилита сжатия : C:\Program Files (x86)\Exact Audio Copy\FLAC\FLAC.EXE
Дополнительные параметры : -6 -V -T "ARTIST=%artist%" -T "TITLE=%title%" -T "ALBUM=%albumtitle%" -T "DATE=%year%" -T "TRACKNUMBER=%tracknr%" -T "GENRE=%genre%" -T "COMMENT=%comment%" -T "BAND=%albuminterpret%" -T "COMPOSER=%composer%" %haslyrics%–tag-from-file=LYRICS="%lyricsfile%"%haslyrics% -T "DISCNUMBER=%cdnumber%" -T "TOTALDISCS=%totalcds%" -T "TOTALTRACKS=%numtracks%" %hascover%–picture="%coverfile%"%hascover% %source% -o %dest%


TOC извлечённого CD

Трек | Старт | Длительность | Начальный сектор | Конечный сектор
––––––––––––––––––––––––––––––––––-
1 | 0:00.00 | 5:03.32 | 0 | 22756
2 | 5:03.32 | 4:50.55 | 22757 | 44561
3 | 9:54.12 | 3:56.70 | 44562 | 62331
4 | 13:51.07 | 5:07.20 | 62332 | 85376
5 | 18:58.27 | 5:49.63 | 85377 | 111614
6 | 24:48.15 | 4:54.67 | 111615 | 133731
7 | 29:43.07 | 3:34.38 | 133732 | 149819
8 | 33:17.45 | 4:03.12 | 149820 | 168056
9 | 37:20.57 | 5:19.70 | 168057 | 192051
10 | 42:40.52 | 6:40.30 | 192052 | 222081


Характеристики диапазона извлечения и сообщения об ошибках

Выбранный диапазон

Имя файла D:\Gh@nz\ALBUMS\Mick Jagger 1987 Primitive Cool CBSSony Japan 32DP 810\Mick Jagger - Primitive Cool.wav

Пиковый уровень 100.0 %
Скорость извлечения 4.2 X
Качество диапазона 99.9 %
CRC теста 41E6C251
CRC копии 41E6C251
Копирование… OK

Ошибок не произошло


AccurateRip: сводка

Трек 1 : извлечено точно (доверие 6) [0CB7024D] (AR v1)
Трек 2 : извлечено точно (доверие 6) [4D9983FA] (AR v1)
Трек 3 : извлечено точно (доверие 6) [C02A6FE3] (AR v1)
Трек 4 : извлечено точно (доверие 6) [182B9B4E] (AR v1)
Трек 5 : извлечено точно (доверие 6) [D1F0F811] (AR v1)
Трек 6 : извлечено точно (доверие 6) [4A495F8B] (AR v1)
Трек 7 : извлечено точно (доверие 6) [2A5127A1] (AR v1)
Трек 8 : извлечено точно (доверие 6) [91AABCF1] (AR v1)
Трек 9 : извлечено точно (доверие 6) [1F7A0C40] (AR v1)
Трек 10 : извлечено точно (доверие 6) [26ACCBA5] (AR v1)

Все треки извлечены точно

Конец отчёта

==== Контрольная сумма отчёта 922FC9B3A8ABFA65DAD316B1A67CBD58157DE957535CB316606AA0B7ACDBF33E ====


[CUETools log; Date: 24.10.2013 10:38:54; Version: 2.1.4]
[CTDB TOCID: hJo6usILtOVJzWevbVuOYSZFxRs-] found.
Track | CTDB Status
1 | (2/2) Accurately ripped
2 | (2/2) Accurately ripped
3 | (2/2) Accurately ripped
4 | (2/2) Accurately ripped
5 | (2/2) Accurately ripped
6 | (2/2) Accurately ripped
7 | (2/2) Accurately ripped
8 | (2/2) Accurately ripped
9 | (2/2) Accurately ripped
10 | (2/2) Accurately ripped
[AccurateRip ID: 001231c2-009180eb-8a0b910a] found.
Track [ CRC | V2 ] Status
01 [0cb7024d|2af2fc46] (6+0/6) Accurately ripped
02 [4d9983fa|64aeac5b] (6+0/6) Accurately ripped
03 [c02a6fe3|768ee827] (6+0/6) Accurately ripped
04 [182b9b4e|5b6268bf] (6+0/6) Accurately ripped
05 [d1f0f811|5e2807e4] (6+0/6) Accurately ripped
06 [4a495f8b|c15889c1] (6+0/6) Accurately ripped
07 [2a5127a1|2936c89f] (6+0/6) Accurately ripped
08 [91aabcf1|cfdbef13] (6+0/6) Accurately ripped
09 [1f7a0c40|56e2555d] (6+0/6) Accurately ripped
10 [26accba5|1a52c4ef] (6+0/6) Accurately ripped

Track Peak [ CRC32 ] [W/O NULL] [ LOG ]
– 100,0 [41E6C251] [822B1166] CRC32
01 94,6 [E4D09B6D] [AB85E303]
02 90,6 [56EC048E] [0E233599]
03 100,0 [8D28DBCE] [5D7D1EBB]
04 100,0 [D7337B21] [3400615C]
05 100,0 [98FA95B6] [7593BB8F]
06 100,0 [562E2918] [9C4DA098]
07 100,0 [4A75D65F] [A2B92E2E]
08 100,0 [FEEEB4BE] [E95FA8D7]
09 100,0 [DE354DEB] [1EC02B29]
10 93,5 [182185CC] [63F964CF]


Mick Jagger: She's The Boss `85 & Primitive Cool `87 & Wandering Spirit `93 [Japanese Ed.]

Tracklist CD3 - 1993 - Wandering Spirit (MMG Inc. AMCY-450 Japan):

01. Wired All Night 04:06
02. Sweet Thing 04:19
03. Out Of Focus 04:35
04. Don't Tear Me Up 04:12
05. Put Me In The Trash (Mick Jagger, Jimmy Ripp) 03:35
06. Use Me (Bill Withers) 04:28
07. Evening Gown 03:32
08. Mother Of A Man 04:17
09. Think (Lowman Pauling) 02:59
10. Wandering Spirit (Mick Jagger, Jimmy Ripp) 04:18
11. Hang On To Me Tonight 04:36
12. I've Been Lonely For So Long (Posie Knight, Jerry Weaver) 03:29
13. Angel In My Heart 03:28
14. Handsome Molly (Traditional) 02:06

Exact Audio Copy V1.0 beta 3 from 29. August 2011

Отчёт EAC об извлечении, выполненном 20. октября 2013, 0:45

Mick Jagger / Wandering Spirit

Дисковод: MATSHITADVD-RAM UJ8B1AS Adapter: 0 ID: 1

Режим чтения : Достоверность
Использование точного потока : Да
Отключение кэша аудио : Да
Использование указателей C2 : Нет

Коррекция смещения при чтении : 6
Способность читать области Lead-in и Lead-out : Нет
Заполнение пропущенных сэмплов тишиной : Да
Удаление блоков с тишиной в начале и конце : Нет
При вычислениях CRC использовались нулевые сэмплы : Да
Интерфейс : Встроенный Win32-интерфейс для Win NT/2000

Выходной формат : Пользовательский кодировщик
Выбранный битрейт : 768 kBit/s
Качество : Высокий
Добавление ID3-тега : Нет
Утилита сжатия : C:\Program Files (x86)\Exact Audio Copy\FLAC\FLAC.EXE
Дополнительные параметры : -6 -V -T "ARTIST=%artist%" -T "TITLE=%title%" -T "ALBUM=%albumtitle%" -T "DATE=%year%" -T "TRACKNUMBER=%tracknr%" -T "GENRE=%genre%" -T "COMMENT=%comment%" -T "BAND=%albuminterpret%" -T "COMPOSER=%composer%" %haslyrics%–tag-from-file=LYRICS="%lyricsfile%"%haslyrics% -T "DISCNUMBER=%cdnumber%" -T "TOTALDISCS=%totalcds%" -T "TOTALTRACKS=%numtracks%" %hascover%–picture="%coverfile%"%hascover% %source% -o %dest%


TOC извлечённого CD

Трек | Старт | Длительность | Начальный сектор | Конечный сектор
––––––––––––––––––––––––––––––––––-
1 | 0:00.00 | 4:06.12 | 0 | 18461
2 | 4:06.12 | 4:19.45 | 18462 | 37931
3 | 8:25.57 | 4:35.38 | 37932 | 58594
4 | 13:01.20 | 4:12.65 | 58595 | 77559
5 | 17:14.10 | 3:35.22 | 77560 | 93706
6 | 20:49.32 | 4:28.60 | 93707 | 113866
7 | 25:18.17 | 3:32.20 | 113867 | 129786
8 | 28:50.37 | 4:17.60 | 129787 | 149121
9 | 33:08.22 | 2:59.03 | 149122 | 162549
10 | 36:07.25 | 4:18.60 | 162550 | 181959
11 | 40:26.10 | 4:36.52 | 181960 | 202711
12 | 45:02.62 | 3:29.10 | 202712 | 218396
13 | 48:31.72 | 3:28.00 | 218397 | 233996
14 | 51:59.72 | 2:06.28 | 233997 | 243474


Характеристики диапазона извлечения и сообщения об ошибках

Выбранный диапазон

Имя файла D:\Gh@nz\ALBUMS\Mick Jagger 1993 Wandering Spirit Atlantic Japan AMCY-450\Mick Jagger - Wandering Spirit.wav

Пиковый уровень 100.0 %
Скорость извлечения 3.8 X
Качество диапазона 99.9 %
CRC теста 6E9B99F7
CRC копии 6E9B99F7
Копирование… OK

Ошибок не произошло


AccurateRip: сводка

Трек 1 : извлечено точно (доверие 3) [DEF325EC] (AR v1)
Трек 2 : извлечено точно (доверие 3) [7AC0EBBE] (AR v1)
Трек 3 : извлечено точно (доверие 3) [83902461] (AR v1)
Трек 4 : извлечено точно (доверие 3) [5383FE0A] (AR v1)
Трек 5 : извлечено точно (доверие 3) [9404DCF4] (AR v1)
Трек 6 : извлечено точно (доверие 3) [A2ECAC8D] (AR v1)
Трек 7 : извлечено точно (доверие 3) [4A64B3D1] (AR v1)
Трек 8 : извлечено точно (доверие 3) [D6202047] (AR v1)
Трек 9 : извлечено точно (доверие 3) [799D9385] (AR v1)
Трек 10 : извлечено точно (доверие 3) [DC914BE7] (AR v1)
Трек 11 : извлечено точно (доверие 3) [89AB2C31] (AR v1)
Трек 12 : извлечено точно (доверие 3) [AEDCFFB4] (AR v1)
Трек 13 : извлечено точно (доверие 3) [1F9F23D8] (AR v1)
Трек 14 : извлечено точно (доверие 3) [B250F502] (AR v1)

Все треки извлечены точно

Конец отчёта

==== Контрольная сумма отчёта 5CF9D5F23E0F0B49097411E6E2D5850DA2AFDCC479D8BB1C890C6FD6A9C64351 ====


[CUETools log; Date: 24.10.2013 10:39:25; Version: 2.1.4]
[CTDB TOCID: wocnsJj0ecr3DhvKGlZE6gBSgb8-] disk not present in database.
[AccurateRip ID: 001d544b-01365afe-ae0cae0e] found.
Track [ CRC | V2 ] Status
01 [def325ec|562969ee] (3+0/3) Accurately ripped
02 [7ac0ebbe|3eb7a8f2] (3+0/3) Accurately ripped
03 [83902461|eb525fd9] (3+0/3) Accurately ripped
04 [5383fe0a|1166cb69] (3+0/3) Accurately ripped
05 [9404dcf4|f0772945] (3+0/3) Accurately ripped
06 [a2ecac8d|fe09aa15] (3+0/3) Accurately ripped
07 [4a64b3d1|47e21b88] (3+0/3) Accurately ripped
08 [d6202047|2a772104] (3+0/3) Accurately ripped
09 [799d9385|633eb7d7] (3+0/3) Accurately ripped
10 [dc914be7|aee4d617] (3+0/3) Accurately ripped
11 [89ab2c31|39df67a6] (3+0/3) Accurately ripped
12 [aedcffb4|a65759d6] (3+0/3) Accurately ripped
13 [1f9f23d8|24f63975] (3+0/3) Accurately ripped
14 [b250f502|7a8740a3] (3+0/3) Accurately ripped

Track Peak [ CRC32 ] [W/O NULL] [ LOG ]
– 100,0 [6E9B99F7] [B9F276CB] CRC32
01 100,0 [3FDB0611] [A81212B0]
02 100,0 [44B7543F] [DA1E8761]
03 100,0 [081E56AF] [220B88D2]
04 99,6 [73452E5F] [0D56675D]
05 98,4 [7A50245C] [77AEA9B1]
06 99,9 [D62065F0] [E74BF553]
07 100,0 [16B1D10E] [1E373CF4]
08 100,0 [227BD351] [4B2D51E4]
09 100,0 [8902887B] [3A6AF756]
10 98,3 [09EE0FAE] [8982BC58]
11 100,0 [280C0D79] [D9CB010D]
12 100,0 [27D49E4A] [79AF402A]
13 99,9 [C0A90360] [AF536345]
14 87,5 [A351394E] [324AEF05]


All thanks go to the original releaser

Mick Jagger in my Blog

Download Mick Jagger: She's The Boss `85 & Primitive Cool `87 & Wandering Spirit `93: