Subcategories
Tags
Language
Tags

Mighty Joe Young - Mighty Joe Young (2002)

Posted By: Designol
Mighty Joe Young - Mighty Joe Young (2002)

Mighty Joe Young - Mighty Joe Young (2002)
EAC | FLAC | Image (Cue&Log) ~ 313 Mb | Mp3 (CBR320) ~ 118 Mb | Scans included
Electric Chicago Blues, Soul-Blues | Label: Blind Pig | # BPCD 5073 | 00:47:08

Blind Pig's 2002 release Mighty Joe Young is a compilation that picks from Mighty Joe Young's Ovation releases Chicken Heads (1974) and Mighty Joe Young (1976). These are generally considered to be among Young's best work, yet they have been out of print for years and never have appeared on CD. Thankfully, this collection picks the 12 best tracks from these records, bringing back into circulation the work that showcases Young at his best. While it would have been nice to have these two albums in their entirety in their original running order, the music is so good and so rare, it's nice just to have it out officially, since this is the place to go to hear him at his best.

Review by Stephen Thomas Erlewine, Allmusic.com

Mighty Joe Young - Mighty Joe Young (2002)



Tracklist:

01. Green Light (3:40)
02. As the Years Go Passing by (4:45)
03. Need a Friend (5:05)
04. Big Talk (5:12)
05. I Give (Chicken Heads)
06. Chicken Heads (4:03)
07. Takes Money (3:47)
08. Something on Your Mind (3:39)
09. Take My Advice (2:48)
10. New Orleans Women (3:42)
11. Serve My Time (3:58)
12. Take Over Chicago (3:04)


Exact Audio Copy V0.99 prebeta 4 from 23. January 2008

EAC extraction logfile from 28. February 2009, 14:11

Mighty Joe Young / Mighty Joe Young

Used drive : HL-DT-STDVD-RAM GH22NP20 Adapter: 0 ID: 0

Read mode : Secure
Utilize accurate stream : Yes
Defeat audio cache : Yes
Make use of C2 pointers : No

Read offset correction : 102
Overread into Lead-In and Lead-Out : No
Fill up missing offset samples with silence : Yes
Delete leading and trailing silent blocks : No
Null samples used in CRC calculations : Yes
Used interface : Native Win32 interface for Win NT & 2000

Used output format : User Defined Encoder
Selected bitrate : 1024 kBit/s
Quality : High
Add ID3 tag : No
Command line compressor : C:\Program Files (x86)\Exact Audio Copy\Flac\flac.exe
Additional command line options : -V -8 -T "artist=%a" -T "title=%t" -T "album=%g" -T "date=%y" -T "tracknumber=%n" -T "genre=%m" %s
Use compression offset : 0


TOC of the extracted CD

Track | Start | Length | Start sector | End sector
––––––––––––––––––––––––––––-
1 | 0:00.00 | 3:39.70 | 0 | 16494
2 | 3:39.70 | 4:44.50 | 16495 | 37844
3 | 8:24.45 | 5:05.10 | 37845 | 60729
4 | 13:29.55 | 5:12.37 | 60730 | 84166
5 | 18:42.17 | 3:24.23 | 84167 | 99489
6 | 22:06.40 | 4:02.67 | 99490 | 117706
7 | 26:09.32 | 3:46.58 | 117707 | 134714
8 | 29:56.15 | 3:38.62 | 134715 | 151126
9 | 33:35.02 | 2:48.25 | 151127 | 163751
10 | 36:23.27 | 3:41.48 | 163752 | 180374
11 | 40:05.00 | 3:58.32 | 180375 | 198256
12 | 44:03.32 | 3:04.13 | 198257 | 212069


Range status and errors

Selected range

Filename D:\Rips\Mighty Joe Young - Mighty Joe Young.wav

Peak level 99.4 %
Range quality 100.0 %
Test CRC 0AD4F448
Copy CRC 0AD4F448
Copy OK

No errors occurred


AccurateRip summary

Track 1 not present in database
Track 2 not present in database
Track 3 not present in database
Track 4 not present in database
Track 5 not present in database
Track 6 not present in database
Track 7 not present in database
Track 8 not present in database
Track 9 not present in database
Track 10 not present in database
Track 11 not present in database
Track 12 not present in database

None of the tracks are present in the AccurateRip database

End of status report

[CUETools log; Date: 14.10.2018 2:04:15; Version: 2.1.4]
Truncated 4608 extra samples in some input files.
[CTDB TOCID: quiYlVd6fJWsVmK61GkQK.8BXV4-] found.
Track | CTDB Status
1 | (2/2) Accurately ripped
2 | (2/2) Accurately ripped
3 | (2/2) Accurately ripped
4 | (2/2) Accurately ripped
5 | (2/2) Accurately ripped
6 | (2/2) Accurately ripped
7 | (2/2) Accurately ripped
8 | (2/2) Accurately ripped
9 | (2/2) Accurately ripped
10 | (2/2) Accurately ripped
11 | (2/2) Accurately ripped
12 | (2/2) Accurately ripped
[AccurateRip ID: 00163a5a-00ccdff0-910b0b0c] found.
Track [ CRC | V2 ] Status
01 [38b05929|267b24b8] (2+0/6) Accurately ripped
02 [13fd628e|c0d1ceeb] (2+0/6) Accurately ripped
03 [36f65da3|0b642ce7] (2+0/6) Accurately ripped
04 [97b31d87|fd2a378a] (2+0/6) Accurately ripped
05 [9ced5e43|a7046d72] (2+0/6) Accurately ripped
06 [1f447f5e|c22b2927] (2+0/6) Accurately ripped
07 [13a14aa5|f2d14019] (2+0/6) Accurately ripped
08 [46142b57|d03ba929] (2+0/6) Accurately ripped
09 [f01ecaf7|c5a27284] (2+0/6) Accurately ripped
10 [a737f351|d0f2ef27] (2+0/6) Accurately ripped
11 [7d45bdf5|4ba937fa] (2+0/6) Accurately ripped
12 [4dda2778|4730bf9d] (2+0/6) Accurately ripped
Offsetted by -870:
01 [296c8ee5] (2/6) Accurately ripped
02 [18b8370e] (2/6) Accurately ripped
03 [810655f1] (2/6) Accurately ripped
04 [358f4de3] (2/6) Accurately ripped
05 [17855fcd] (2/6) Accurately ripped
06 [cf03c408] (2/6) Accurately ripped
07 [056e008d] (2/6) Accurately ripped
08 [3169c049] (2/6) Accurately ripped
09 [7bae60ad] (2/6) Accurately ripped
10 [ad3cc3eb] (2/6) Accurately ripped
11 [9d55627d] (2/6) Accurately ripped
12 [9fd9ddc4] (2/6) Accurately ripped

Track Peak [ CRC32 ] [W/O NULL] [ LOG ]
– 99,4 [0AD4F448] [D0689338] CRC32
01 99,3 [9DDE7C75] [3F51C904]
02 99,3 [FE60F808] [3994B333]
03 99,3 [3CE9DD57] [A0DEEC3E]
04 99,4 [41DF3121] [6E16B3F9]
05 99,3 [12E02271] [B6345043]
06 99,4 [DBA6C246] [18BE53BF]
07 99,3 [A0284F07] [AF804DC5]
08 99,3 [C3BF2608] [DE48CDE1]
09 99,3 [232A258B] [32D49C7A]
10 99,3 [F5EE6FF2] [75DF62DC]
11 99,3 [2C57D544] [3A844919]
12 99,3 [F92AEB2F] [34D01037]

foobar2000 1.2 / Dynamic Range Meter 1.1.1
log date: 2018-10-14 02:03:35

––––––––––––––––––––––––––––––––––––––––
Analyzed: Mighty Joe Young / Mighty Joe Young
––––––––––––––––––––––––––––––––––––––––

DR Peak RMS Duration Track
––––––––––––––––––––––––––––––––––––––––
DR10 -0.06 dB -11.86 dB 3:40 01-Green Light
DR12 -0.06 dB -13.67 dB 4:45 02-As the Years Go Passing by
DR10 -0.06 dB -10.82 dB 5:05 03-Need a Friend
DR11 -0.05 dB -12.65 dB 5:12 04-Big Talk
DR10 -0.05 dB -10.88 dB 3:24 05-I Give
DR11 -0.05 dB -12.27 dB 4:03 06-Chicken Heads
DR10 -0.05 dB -11.01 dB 3:47 07-Takes Money
DR11 -0.05 dB -13.02 dB 3:39 08-Something on Your Mind
DR11 -0.06 dB -12.54 dB 2:48 09-Take My Advice
DR10 -0.06 dB -11.46 dB 3:42 10-New Orleans Women
DR11 -0.06 dB -12.63 dB 3:58 11-Serve My Time
DR10 -0.06 dB -11.94 dB 3:04 12-Take Over Chicago
––––––––––––––––––––––––––––––––––––––––

Number of tracks: 12
Official DR value: DR10

Samplerate: 44100 Hz
Channels: 2
Bits per sample: 16
Bitrate: 900 kbps
Codec: FLAC
================================================================================

Mighty Joe Young - Mighty Joe Young (2002)

Mighty Joe Young - Mighty Joe Young (2002)

All thanks to original releaser - Yarila

More interesting music in My Blog