Subcategories
Tags
Language
Tags

Mike Zito - Pearl River (2009)

Posted By: popsakov
Mike Zito - Pearl River (2009)

Mike Zito - Pearl River (2009)
EAC Rip | FLAC (Img) + Cue + Log ~ 402 Mb | MP3 CBR320 ~ 152 Mb
Full Scans | 00:55:50 | RAR 5% Recovery
Electric Blues, Blues Rock | Eclecto Groove Records #EGR CD 508

Mike Zito is one who enjoys returning to his blues roots, playing electric guitar and ripping though songs with his sawtooth-sharp voice. Pearl River – his fifth album – is quite different than the previous effort Today, which was more rock-oriented, and focuses on not only contemporary urban tunes but a few acoustic folk-oriented ones, and the basis of all of his music, the sound of New Orleans. He's got help from guitarist Anders Osborne and keyboardist Reese Wynans from Stevie Ray Vaughan's band, and there are guest appearances from Cyril Neville, Johnny Sansone, Lynwood Slim, Randy Chortkoff (also his producer,) and Susan Cowsill (yes, she of the Cowsills fame). It's good to hear Zito dig deep into songs like the title track, Neville's pure, slow blues, the New Orleans shuffle treatment of Sonny Boy Williamson's "Eyesight to the Blind," and Mel London's rocksteady "Sugar Sweet." Zito is no slouch as a songwriter, and his "Dirty Blonde" is a swing jump blues, as he admonishes a lady "friend" for her entire persona being low-down and scurrilous from the neck down. He does get into some choogling voodoo à la Charlie Musselwhite, and plays toy piano on "The Dead of Night," while the acoustic tunes, especially with rising star Osborne, offer a sweeter side to Zito's normally rough exterior. With Cowsill, "Shoes Blues" is the most humorous song, and interactive as he trades lines with the former pop star/girl next door. This is not a cookie-cutter album from Zito and friends, as it shows off all the musical styles that have led him to the point of being an individualist. It's well worth the purchase price, and comes highly recommended.

~ Michael G. Nastos, All Music

***************

Mike Zito - Pearl River (2009)

Track List:

01. Dirty Blonde [0:03:36.78]
02. Pearl River [0:04:53.58]
03. Big Mouth [0:04:08.08]
04. Change My Ways [0:05:14.76]
05. Eyesight To The Blind [0:03:21.28]
06. One Step At A Time [0:03:37.24]
07. 39 Days [0:04:07.38]
08. Shoes Blues [0:03:23.98]
09. The Dead Of Night [0:04:05.05]
10. Sugar Sweet [0:03:29.53]
11. Natural Born Lover [0:05:29.57]
12. All Last Night [0:05:26.69]
13. C'mon Baby [0:04:56.94]

Exact Audio Copy V0.99 prebeta 4 from 23. January 2008

Отчёт EAC об извлечении, выполненном 11. ноября 2009, 1:10

Mike Zito / Pearl River

Дисковод: PLEXTOR DVDR PX-820A Adapter: 3 ID: 1

Режим чтения : Достоверность
Использование точного потока : Да
Отключение кэша аудио : Да
Использование указателей C2 : Нет

Коррекция смещения при чтении : 48
Способность читать области Lead-in и Lead-out : Нет
Заполнение пропущенных сэмплов тишиной : Да
Удаление блоков с тишиной в начале и конце : Нет
При вычислениях CRC использовались нулевые сэмплы : Да
Интерфейс : Встроенный Win32-интерфейс для Win NT/2000

Выходной формат : Внутренние WAV-операции
Формат сэмплов : 44.100 Гц; 16 бит; стерео


TOC извлечённого CD

Трек | Старт | Длительность | Начальный сектор | Конечный сектор
––––––––––––––––––––––––––––––––––-
1 | 0:00.00 | 3:36.59 | 0 | 16258
2 | 3:36.59 | 4:53.44 | 16259 | 38277
3 | 8:30.28 | 4:08.06 | 38278 | 56883
4 | 12:38.34 | 5:14.57 | 56884 | 80490
5 | 17:53.16 | 3:21.21 | 80491 | 95586
6 | 21:14.37 | 3:37.18 | 95587 | 111879
7 | 24:51.55 | 4:07.29 | 111880 | 130433
8 | 28:59.09 | 3:23.74 | 130434 | 145732
9 | 32:23.08 | 4:05.04 | 145733 | 164111
10 | 36:28.12 | 3:29.40 | 164112 | 179826
11 | 39:57.52 | 5:29.43 | 179827 | 204544
12 | 45:27.20 | 5:26.52 | 204545 | 229046
13 | 50:53.72 | 4:56.71 | 229047 | 251317


Характеристики диапазона извлечения и сообщения об ошибках

Выбранный диапазон

Имя файла D:\Муз раздача 1\MIKE ZITO\Mike Zito - Pearl River.wav

Пиковый уровень 100.0 %
Качество диапазона 100.0 %
CRC копии 08EFEBF9
Копирование… OK

Ошибок не произошло


AccurateRip: сводка

Трек 1 нет в базе данных
Трек 2 нет в базе данных
Трек 3 нет в базе данных
Трек 4 нет в базе данных
Трек 5 нет в базе данных
Трек 6 нет в базе данных
Трек 7 нет в базе данных
Трек 8 нет в базе данных
Трек 9 нет в базе данных
Трек 10 нет в базе данных
Трек 11 нет в базе данных
Трек 12 нет в базе данных
Трек 13 нет в базе данных

Ни одного трека нет в базе AccurateRip

Конец отчёта

foobar2000 1.2.6 / Dynamic Range Meter 1.1.1
log date: 2017-09-05 14:16:27

––––––––––––––––––––––––––––––––––––––––
Analyzed: Mike Zito / Pearl River
––––––––––––––––––––––––––––––––––––––––

DR Peak RMS Duration Track
––––––––––––––––––––––––––––––––––––––––
DR8 0.00 dB -9.62 dB 3:37 01-Mike Zito / Dirty Blonde
DR7 0.00 dB -9.18 dB 4:54 02-Mike Zito / Pearl River
DR8 0.00 dB -9.92 dB 4:08 03-Mike Zito / Big Mouth
DR7 0.00 dB -8.66 dB 5:15 04-Mike Zito / Change My Ways
DR8 0.00 dB -9.46 dB 3:21 05-Mike Zito / Eyesight To The Blind
DR8 -0.20 dB -10.43 dB 3:37 06-Mike Zito / One Step At A Time
DR8 0.00 dB -9.58 dB 4:07 07-Mike Zito / 39 Days
DR8 0.00 dB -9.22 dB 3:24 08-Mike Zito / Shoes Blues
DR8 0.00 dB -10.33 dB 4:05 09-Mike Zito / The Dead Of Night
DR8 0.00 dB -9.44 dB 3:30 10-Mike Zito / Sugar Sweet
DR8 0.00 dB -9.40 dB 5:30 11-Mike Zito / Natural Born Lover
DR9 0.00 dB -11.15 dB 5:27 12-Mike Zito / All Last Night
DR8 0.00 dB -9.86 dB 4:57 13-Mike Zito / C'mon Baby
––––––––––––––––––––––––––––––––––––––––

Number of tracks: 13
Official DR value: DR8

Samplerate: 44100 Hz
Channels: 2
Bits per sample: 16
Bitrate: 914 kbps
Codec: FLAC
================================================================================

[CUETools log; Date: 05.09.2017 14:16:54; Version: 2.1.5]
[CTDB TOCID: ArwwF_S98se6ukS9mTETyZmSJL8-] found.
Track | CTDB Status
1 | (10/10) Accurately ripped
2 | (10/10) Accurately ripped
3 | (10/10) Accurately ripped
4 | (10/10) Accurately ripped
5 | (10/10) Accurately ripped
6 | (10/10) Accurately ripped
7 | (10/10) Accurately ripped
8 | (10/10) Accurately ripped
9 | (10/10) Accurately ripped
10 | (10/10) Accurately ripped
11 | (10/10) Accurately ripped
12 | (10/10) Accurately ripped
13 | (10/10) Accurately ripped
[AccurateRip ID: 001a01cb-01044c63-b40d160d] found.
Track [ CRC | V2 ] Status
01 [c97bc2ca|f5e34121] (03+00/20) Accurately ripped
02 [ece1bddf|e9b9ddf9] (03+00/21) Accurately ripped
03 [b867b2b9|e87b1b80] (03+00/20) Accurately ripped
04 [945f2279|3b602d72] (03+00/20) Accurately ripped
05 [0255291d|773d5be7] (03+00/20) Accurately ripped
06 [e12601f7|1ee8c1d6] (03+00/20) Accurately ripped
07 [7233cba8|01099f5f] (03+00/20) Accurately ripped
08 [d59f9570|ced6f45d] (03+00/20) Accurately ripped
09 [a1ae171c|a7052918] (03+00/21) Accurately ripped
10 [cb0439ab|193be0e0] (03+00/20) Accurately ripped
11 [bb236645|5d02da5d] (03+00/20) Accurately ripped
12 [7b1e2aad|c3187ebd] (03+00/20) Accurately ripped
13 [d62f7d44|fde9f5e3] (03+00/19) Accurately ripped
Offsetted by -634:
01 [260abe8c] (04/20) Accurately ripped
02 [2cb3c584] (04/21) Accurately ripped
03 [a0c0d22d] (04/20) Accurately ripped
04 [2bfa5c10] (04/20) Accurately ripped
05 [97951132] (04/20) Accurately ripped
06 [841a556a] (04/20) Accurately ripped
07 [5f6f0100] (04/20) Accurately ripped
08 [69775f8d] (04/20) Accurately ripped
09 [06b6b246] (04/21) Accurately ripped
10 [a73f1592] (04/20) Accurately ripped
11 [b6011db1] (04/20) Accurately ripped
12 [02ece1a8] (04/20) Accurately ripped
13 [14d9bbc1] (03/19) Accurately ripped
Offsetted by -30:
01 [70deceaf] (03/20) Accurately ripped
02 [690c510d] (04/21) Accurately ripped
03 [b6283d59] (03/20) Accurately ripped
04 [a9818322] (03/20) Accurately ripped
05 [288c7f2b] (03/20) Accurately ripped
06 [180d39ec] (03/20) Accurately ripped
07 [6cf1ac35] (02/20) Accurately ripped
08 [dad5081e] (03/20) Accurately ripped
09 [267fc659] (04/21) Accurately ripped
10 [fa29b8ec] (03/20) Accurately ripped
11 [63ed7797] (03/20) Accurately ripped
12 [dae8bd9f] (03/20) Accurately ripped
13 [1c1c1bc2] (03/19) Accurately ripped
Offsetted by 30:
01 [1f7fe260] (00/20) No match (V2 was not tested)
02 [9817b5fc] (00/21) No match (V2 was not tested)
03 [379cea9f] (00/20) No match (V2 was not tested)
04 [e7c856f7] (00/20) No match (V2 was not tested)
05 [de880b30] (00/20) No match (V2 was not tested)
06 [cfda5233] (00/20) No match (V2 was not tested)
07 [265093a3] (00/20) No match (V2 was not tested)
08 [eaad5f23] (00/20) No match (V2 was not tested)
09 [d5d26662] (00/21) No match (V2 was not tested)
10 [e92db85c] (00/20) No match (V2 was not tested)
11 [fc27aafa] (00/20) No match (V2 was not tested)
12 [69148f3c] (00/20) No match (V2 was not tested)
13 [55bd1883] (00/19) No match (V2 was not tested)

Track Peak [ CRC32 ] [W/O NULL] [ LOG ]
– 100,0 [08EFEBF9] [9322A811] CRC32
01 100,0 [66BC8751] [6951D27C]
02 100,0 [75C44F2F] [EAD2D6E9]
03 100,0 [34651D34] [E062535E]
04 100,0 [F72E6F1D] [6917EBF5]
05 100,0 [1531D1E5] [D8B4E54E]
06 97,7 [D4D10923] [C27C091F]
07 100,0 [299D85FB] [B1F958CA]
08 100,0 [BC3A0D03] [4BFF2354]
09 100,0 [3F148A07] [65C8D7BC]
10 100,0 [1815868F] [3A12E708]
11 100,0 [81B6F9FB] [901D3AF5]
12 100,0 [43426705] [4F6D31E6]
13 100,0 [FBF57CEE] [4FEDC4A6]

Mike Zito - Pearl River (2009)


All thanks go to ЗУБ2007

>>> Mike Zito in my Blog <<<

DOWNLOAD: