Tags
Language
Tags

Mississippi Heat - Cab Driving Man (2016)

Posted By: Designol
Mississippi Heat - Cab Driving Man (2016)

Mississippi Heat - Cab Driving Man (2016)
EAC | FLAC | Image (Cue&Log) ~ 431 Mb | Mp3 (CBR320) ~ 158 Mb | Scans included
Genre: Modern Electric Chicago Blues | Label: Delmark | # DE-848 | Time: 01:07:46

The Heat is turned up again for another chapter in the 25-year history of Pierre Lacocque's Mississippi Heat. The Living Blues review of their previous album said 'Warning Shot (DMK 839) showcases bandleader and principal songwriter Lacocque's eloquent harp playing, supported by a cast of heavy hitters that delivers the trademark big band sound and one of the hottest, tightest bands in Chicago today, and the original songs on this album are pure fun and are worthy additions to the great history of Chicago blues. ' Cab Driving Man features 15 new songs with Inetta Visor and Michael Dotson as lead vocalists again. The songs are a wonderful blend of Mississippi, Chicago, boogie, swing and south of the border

Cab Driving Man is the twelfth album by Mississippi Heat, a standard in ensemble blues since 1991. The band was founded by harp player Pierre Lacocque, and since its humble beginnings, a number of blues stalwarts have been members at one point or another. Alumni include bassist Bob Stroger, guitarists Billy Flynn, Carl Weatherby, Lurrie Bell, John Primer, pianist Barrelhouse Chuck, drummer Allen Kirk and vocalists Mary Lane and Deitra Farr.

Their sixth album for Delmark Records, Cab Driving Man features a winning lineup of players: Pierre Lacocque – harmonica, Inetta Visor – vocals, Michael Dotson and Giles Corey – guitars and vocals, Dave Specter – guitar, Brian Quinn and Ricky Nelson – bass, Terrence Williams and Kenny Smith on drums. Chris “Hambone’ Cameron and Sumito Ariyo tickle the ivories, Sax Gordon plays tenor and baritone sax, and Ruben Alvarez handles percussion.

As with any Mississippi Heat album, once the needle hits the groove, hold on to your hat because a seriously good time is about to ensue. There are 16 tracks of delicious, soulful blues here! Naturally, we did have our favorites though. The band steps up on “Flowers on My Tombstone,” and Visor really delivers on vocals, along with a perfect solo from Dotson on guitar. Cameron’s keyboard accents and Lacocque’s harp lines and just the right touch.

Other tracks we enjoyed include “The Last Go Round,” with its quick pace, and Dotson’s guitar picking and catchy vocal, and “Rosalie,” with its spunky, Buena Vista Social Club disposition, Quinn’s punchy bass line, another delightful vocal from Visor, and Giles Corey’s engaging guitar solo. The hard driving fun of “Icy Blue” was also a turn on and had us tapping our feet; it’s just such a well written, well performed piece of music. Bravo y’all!

Cab Driving Man brings a veritable blues smorgasbord to your ears. From Cotton Club Cab Calloway blues to the blues of NOLA party dens, boogie-woogie to Cajun, this album has it all. There’s even hat tips to Robert Nighthawk and Robert Lockwood Jr.

There are no wooden nickels here. This is the genuine article. This band is so tight, they could bind up a charging lion with the web of a spider. Pick up your copy today!

Review by Barry Kerzner, American Blues Scene

Mississippi Heat at Allmusic
Mississippi Heat Website
Mississippi Heat at Wiki

Tracklist:

01. Cupid Bound (03:30)
02. Cab Driving Man (03:36)
03. That Late Night Stuff (04:08)
04. Flowers On My Tombstone (04:55)
05. Icy Blue (03:51)
06. The Last Go Round (04:29)
07. Life Is Too Short (03:26)
08. Don't Mess Up A Good Thing (03:31)
09. Rosalie (04:56)
10. Luck Of The Draw (04:34)
11. Mama Kaila (05:10)
12. Music Is My Life (05:40)
13. Lonely Eyes (03:51)
14. Smooth Operator (04:21)
15. Can't Get Me No Traction (04:36)
16. Hey Pipo! (03:05)


Exact Audio Copy V1.1 from 23. June 2015

EAC extraction logfile from 31. December 2016, 11:27

Mississippi Heat / Cab Driving Man

Used drive : Optiarc DVD RW AD-7240S Adapter: 1 ID: 0

Read mode : Secure
Utilize accurate stream : Yes
Defeat audio cache : Yes
Make use of C2 pointers : No

Read offset correction : 48
Overread into Lead-In and Lead-Out : No
Fill up missing offset samples with silence : Yes
Delete leading and trailing silent blocks : No
Null samples used in CRC calculations : Yes
Used interface : Native Win32 interface for Win NT & 2000

Used output format : User Defined Encoder
Selected bitrate : 896 kBit/s
Quality : High
Add ID3 tag : No
Command line compressor : C:\Program Files (x86)\Exact Audio Copy\Flac\flac.exe
Additional command line options : -6 -V -T "ARTIST=%artist%" -T "TITLE=%title%" -T "ALBUM=%albumtitle%" -T "DATE=%year%" -T "TRACKNUMBER=%tracknr%" -T "GENRE=%genre%" -T "COMMENT=%comment%" -T "BAND=%albuminterpret%" -T "COMPOSER=%composer%" %haslyrics%–tag-from-file=LYRICS="%lyricsfile%"%haslyrics% -T "DISCNUMBER=%cdnumber%" -T "TOTALDISCS=%totalcds%" -T "TOTALTRACKS=%numtracks%" %hascover%–picture="%coverfile%"%hascover% %source% -o %dest%


TOC of the extracted CD

Track | Start | Length | Start sector | End sector
––––––––––––––––––––––––––––-
1 | 0:00.00 | 3:30.40 | 0 | 15789
2 | 3:30.40 | 3:36.09 | 15790 | 31998
3 | 7:06.49 | 4:08.12 | 31999 | 50610
4 | 11:14.61 | 4:55.58 | 50611 | 72793
5 | 16:10.44 | 3:51.20 | 72794 | 90138
6 | 20:01.64 | 4:29.32 | 90139 | 110345
7 | 24:31.21 | 3:26.61 | 110346 | 125856
8 | 27:58.07 | 3:31.20 | 125857 | 141701
9 | 31:29.27 | 4:56.12 | 141702 | 163913
10 | 36:25.39 | 4:34.61 | 163914 | 184524
11 | 41:00.25 | 5:10.40 | 184525 | 207814
12 | 46:10.65 | 5:40.67 | 207815 | 233381
13 | 51:51.57 | 3:51.28 | 233382 | 250734
14 | 55:43.10 | 4:21.41 | 250735 | 270350
15 | 60:04.51 | 4:36.52 | 270351 | 291102
16 | 64:41.28 | 3:05.06 | 291103 | 304983


Range status and errors

Selected range

Filename D:\My Music Archive_D\__My Rips\Mississippi Heat - Cab Driving Man\Mississippi Heat - Cab Driving Man.wav

Peak level 98.8 %
Extraction speed 4.2 X
Range quality 100.0 %
Test CRC 05C951FC
Copy CRC 05C951FC
Copy OK

No errors occurred


AccurateRip summary

Track 1 not present in database
Track 2 not present in database
Track 3 not present in database
Track 4 not present in database
Track 5 not present in database
Track 6 not present in database
Track 7 not present in database
Track 8 not present in database
Track 9 not present in database
Track 10 not present in database
Track 11 not present in database
Track 12 not present in database
Track 13 not present in database
Track 14 not present in database
Track 15 not present in database
Track 16 not present in database

None of the tracks are present in the AccurateRip database

End of status report

==== Log checksum 39203D9CF49802F057232A849EEE25A3D35AEA0624249B9B6704C0FF55BAF9CD ====

foobar2000 1.2 / Dynamic Range Meter 1.1.1
log date: 2017-01-17 21:34:39

––––––––––––––––––––––––––––––––––––––––
Analyzed: Mississippi Heat / Cab Driving Man
––––––––––––––––––––––––––––––––––––––––

DR Peak RMS Duration Track
––––––––––––––––––––––––––––––––––––––––
DR5 -0.10 dB -6.20 dB 3:31 01-Cupid Bound
DR5 -0.10 dB -5.53 dB 3:36 02-Cab Driving Man
DR5 -0.10 dB -6.15 dB 4:08 03-That Late Night Stuff
DR6 -0.10 dB -7.46 dB 4:56 04-Flowers On My Tombstone
DR6 -0.10 dB -6.80 dB 3:51 05-Icy Blue
DR5 -0.10 dB -6.62 dB 4:29 06-The Last Go Round
DR7 -0.10 dB -8.83 dB 3:27 07-Life Is Too Short
DR6 -0.10 dB -6.59 dB 3:31 08-Don't Mess Up A Good Thing
DR5 -0.10 dB -6.05 dB 4:56 09-Rosalie
DR6 -0.10 dB -7.14 dB 4:35 10-Luck Of The Draw
DR7 -0.10 dB -8.89 dB 5:11 11-Mama Kaila
DR6 -0.10 dB -6.93 dB 5:41 12-Music Is My Life
DR6 -0.10 dB -6.37 dB 3:51 13-Lonely Eyes
DR5 -0.10 dB -6.47 dB 4:22 14-Smooth Operator
DR6 -0.10 dB -7.37 dB 4:37 15-Can't Get Me No Traction
DR6 -0.10 dB -7.18 dB 3:05 16-Hey Pipo!
––––––––––––––––––––––––––––––––––––––––

Number of tracks: 16
Official DR value: DR6

Samplerate: 44100 Hz
Channels: 2
Bits per sample: 16
Bitrate: 882 kbps
Codec: FLAC
================================================================================

Mississippi Heat - Cab Driving Man (2016)

Mississippi Heat - Cab Driving Man (2016)

All thanks to original releaser - funny_horse

More interesting music in My Blog