Subcategories

Mistic - Between Heaven & Earth (2012)

Posted By: gribovar
Mistic - Between Heaven & Earth (2012)

Mistic - Between Heaven & Earth (2012)
EAC Rip | FLAC (tracks+.cue+log) - 342 MB | MP3 CBR 320 kbps (LAME 3.93) - 118 MB | Covers - 132 MB
Genre: New Age, Chant, Ambientpop | RAR 3% Rec. | Label: MJM Music (MJM5237)

Mistic was founded in 2005, inspired by a series of albums "Gregorian - Masters of Chant," which results released in 2006 album "Mistic - Polish biggest hits in the style of Gregorian chant" released by Warner Music.
Tracklist:
01. Your Destiny (Original)
02. Toca's Miracle (Fragma)
03. Angels (Morandi)
04. Not Giving Up On Love (Armin van Buuren)
05. In And Out Of Love (Armin van Buuren)
06. Forgiven (Sylver)
07. Ecstasy (ATB)
08. God Is A Girl (Groove Coverage)
09. Mind Of The Wonderful (Blank & Jones)
10. Apologize (One Republic)
11. Love's Like Rain (Original)
12. Glorifica (Paul Bennet Remix) (Bonus track)
13. Glorifica (Simon Woods Remix) (Bonus track)

Total time: 48:16

Exact Audio Copy V1.0 beta 3 from 29. August 2011

EAC extraction logfile from 19. March 2013, 17:28

Mistic / Between Heaven & Earth

Used drive : ASUS BW-12B1ST Adapter: 1 ID: 1

Read mode : Secure
Utilize accurate stream : Yes
Defeat audio cache : Yes
Make use of C2 pointers : No

Read offset correction : 6
Overread into Lead-In and Lead-Out : No
Fill up missing offset samples with silence : Yes
Delete leading and trailing silent blocks : No
Null samples used in CRC calculations : Yes
Used interface : Native Win32 interface for Win NT & 2000
Gap handling : Appended to previous track

Used output format : User Defined Encoder
Selected bitrate : 1024 kBit/s
Quality : High
Add ID3 tag : No
Command line compressor : C:\Program Files (x86)\Exact Audio Copy\Flac\flac.exe
Additional command line options : -8 -V -T "ARTIST=%artist%" -T "TITLE=%title%" -T "ALBUM=%albumtitle%" -T "DATE=%year%" -T "TRACKNUMBER=%tracknr%" -T "GENRE=%genre%" -T "PERFORMER=%albuminterpret%" -T "COMPOSER=%composer%" %haslyrics%–tag-from-file=LYRICS="%lyricsfile%"%haslyrics% -T "ALBUMARTIST=%albumartist%" -T "DISCNUMBER=%cdnumber%" -T "TOTALDISCS=%totalcds%" -T "TOTALTRACKS=%numtracks%" -T "COMMENT=%comment%" %source% -o %dest%


TOC of the extracted CD

Track | Start | Length | Start sector | End sector
––––––––––––––––––––––––––––-
1 | 0:00.00 | 4:07.59 | 0 | 18583
2 | 4:07.59 | 3:40.23 | 18584 | 35106
3 | 7:48.07 | 3:54.23 | 35107 | 52679
4 | 11:42.30 | 3:16.66 | 52680 | 67445
5 | 14:59.21 | 4:14.69 | 67446 | 86564
6 | 19:14.15 | 3:42.72 | 86565 | 103286
7 | 22:57.12 | 3:53.61 | 103287 | 120822
8 | 26:50.73 | 2:57.32 | 120823 | 134129
9 | 29:48.30 | 5:06.53 | 134130 | 157132
10 | 34:55.08 | 3:10.32 | 157133 | 171414
11 | 38:05.40 | 2:55.18 | 171415 | 184557
12 | 41:00.58 | 3:43.18 | 184558 | 201300
13 | 44:44.01 | 3:31.65 | 201301 | 217190


Track 1

Filename E:\2012 - Mistic - Between Heaven & Earth (MJM5237)\01 Your Destiny (Original).wav

Pre-gap length 0:00:02.00

Peak level 98.4 %
Extraction speed 4.2 X
Track quality 100.0 %
Test CRC E78CFE78
Copy CRC E78CFE78
Track not present in AccurateRip database
Copy OK

Track 2

Filename E:\2012 - Mistic - Between Heaven & Earth (MJM5237)\02 Toca's Miracle (Fragma).wav

Pre-gap length 0:00:02.00

Peak level 98.4 %
Extraction speed 4.7 X
Track quality 100.0 %
Test CRC 0E371DD9
Copy CRC 0E371DD9
Track not present in AccurateRip database
Copy OK

Track 3

Filename E:\2012 - Mistic - Between Heaven & Earth (MJM5237)\03 Angels (Morandi).wav

Pre-gap length 0:00:02.00

Peak level 98.4 %
Extraction speed 5.2 X
Track quality 100.0 %
Test CRC 22C09337
Copy CRC 22C09337
Track not present in AccurateRip database
Copy OK

Track 4

Filename E:\2012 - Mistic - Between Heaven & Earth (MJM5237)\04 Not Giving Up On Love (Armin Van Buuren).wav

Pre-gap length 0:00:02.00

Peak level 98.4 %
Extraction speed 4.4 X
Track quality 99.9 %
Test CRC AEA95D0E
Copy CRC AEA95D0E
Track not present in AccurateRip database
Copy OK

Track 5

Filename E:\2012 - Mistic - Between Heaven & Earth (MJM5237)\05 In And Out Of Love (Armin Van Buuren).wav

Pre-gap length 0:00:02.00

Peak level 98.4 %
Extraction speed 6.0 X
Track quality 100.0 %
Test CRC 0F3026F8
Copy CRC 0F3026F8
Track not present in AccurateRip database
Copy OK

Track 6

Filename E:\2012 - Mistic - Between Heaven & Earth (MJM5237)\06 Forgiven (Sylver).wav

Pre-gap length 0:00:02.00

Peak level 98.4 %
Extraction speed 6.2 X
Track quality 100.0 %
Test CRC E243C231
Copy CRC E243C231
Track not present in AccurateRip database
Copy OK

Track 7

Filename E:\2012 - Mistic - Between Heaven & Earth (MJM5237)\07 Ecstasy (ATB).wav

Pre-gap length 0:00:02.00

Peak level 98.4 %
Extraction speed 6.6 X
Track quality 100.0 %
Test CRC C4CE6220
Copy CRC C4CE6220
Track not present in AccurateRip database
Copy OK

Track 8

Filename E:\2012 - Mistic - Between Heaven & Earth (MJM5237)\08 God Is A Girl (Groove Coverage).wav

Pre-gap length 0:00:02.00

Peak level 98.4 %
Extraction speed 6.6 X
Track quality 100.0 %
Test CRC 075293EC
Copy CRC 075293EC
Track not present in AccurateRip database
Copy OK

Track 9

Filename E:\2012 - Mistic - Between Heaven & Earth (MJM5237)\09 Mind Of The Wonderful (Blank & Jones).wav

Pre-gap length 0:00:02.00

Peak level 98.2 %
Extraction speed 7.4 X
Track quality 100.0 %
Test CRC E6586483
Copy CRC E6586483
Track not present in AccurateRip database
Copy OK

Track 10

Filename E:\2012 - Mistic - Between Heaven & Earth (MJM5237)\10 Apologize (One Republic).wav

Pre-gap length 0:00:02.00

Peak level 98.4 %
Extraction speed 7.2 X
Track quality 100.0 %
Test CRC 62DFBD28
Copy CRC 62DFBD28
Track not present in AccurateRip database
Copy OK

Track 11

Filename E:\2012 - Mistic - Between Heaven & Earth (MJM5237)\11 Love's Like Rain (Original).wav

Pre-gap length 0:00:02.00

Peak level 98.8 %
Extraction speed 7.3 X
Track quality 100.0 %
Test CRC 8711D688
Copy CRC 8711D688
Track not present in AccurateRip database
Copy OK

Track 12

Filename E:\2012 - Mistic - Between Heaven & Earth (MJM5237)\12 Glorifica (Paul Bennet Remix).wav

Pre-gap length 0:00:02.00

Peak level 100.0 %
Extraction speed 7.7 X
Track quality 100.0 %
Test CRC 481447F4
Copy CRC 481447F4
Track not present in AccurateRip database
Copy OK

Track 13

Filename E:\2012 - Mistic - Between Heaven & Earth (MJM5237)\13 Glorifica (Simon Woods Remix).wav

Pre-gap length 0:00:02.00

Peak level 98.8 %
Extraction speed 7.8 X
Track quality 100.0 %
Test CRC 9475FF56
Copy CRC 9475FF56
Track not present in AccurateRip database
Copy OK


None of the tracks are present in the AccurateRip database

No errors occurred

End of status report

==== Log checksum 629DA0294CA5328D24A614272335BD303C2E732C285271FE398D99E9A7131141 ====

[CUETools log; Date: 23.03.2019 21:39:55; Version: 2.1.4]
[CTDB TOCID: yRUUEhWpQNtrhuJ8d.qNQz5YPO8-] found.
Track | CTDB Status
1 | (3/3) Accurately ripped
2 | (3/3) Accurately ripped
3 | (3/3) Accurately ripped
4 | (3/3) Accurately ripped
5 | (3/3) Accurately ripped
6 | (3/3) Accurately ripped
7 | (3/3) Accurately ripped
8 | (3/3) Accurately ripped
9 | (3/3) Accurately ripped
10 | (3/3) Accurately ripped
11 | (3/3) Accurately ripped
12 | (3/3) Accurately ripped
13 | (3/3) Accurately ripped
[AccurateRip ID: 0017a78c-00eb87fb-b60b4f0d] disk not present in database.

Track Peak [ CRC32 ] [W/O NULL] [ LOG ]
– 100,0 [61C257CE] [41B6FE45]
01 98,4 [E78CFE78] [E01B80DF] CRC32
02 98,4 [0E371DD9] [5EE429FA] CRC32
03 98,4 [22C09337] [C2F746EB] CRC32
04 98,4 [AEA95D0E] [72DD81CF] CRC32
05 98,4 [0F3026F8] [3F44FC73] CRC32
06 98,4 [E243C231] [8CE050F2] CRC32
07 98,4 [C4CE6220] [57E72AB1] CRC32
08 98,4 [075293EC] [7ABDF829] CRC32
09 98,2 [E6586483] [C146F60C] CRC32
10 98,4 [62DFBD28] [3CF649FD] CRC32
11 98,8 [8711D688] [43AF1579] CRC32
12 100,0 [481447F4] [E41C724D] CRC32
13 98,8 [9475FF56] [F3C4D655] CRC32

Thanks to Ragnaroczek