Subcategories
Tags
Language
Tags

Moby - Exclusive to readers of The Observer (2000)

Posted By: gribovar
Moby - Exclusive to readers of The Observer (2000)

Moby - Exclusive to readers of The Observer (2000)
EAC Rip | FLAC (tracks+.cue+log) - 311 MB | MP3 CBR 320 kbps (LAME 3.93) - 166 MB | Covers included
Genre: Electronic, Downtempo, House, Techno | RAR 3% Rec. | Label: Mute (Obmoby1cd)

Exclusive to readers of the Observer newspaper in the United Kingdom and available with that newspaper and from certain outlets for the day of issue. 8 tracks selected by Moby + exclusive Moby interview.
Tracklist:
01. First Cool Hive
02. Porcelain
03. Go
04. Everloving
05. Anthem
06. Now I Let It Go
07. God Moving Over The Face of The Waters
08. Memory Gospel
+ Exclusive Moby Interview

Total time: 37:03

Exact Audio Copy V1.3 from 2. September 2016

EAC extraction logfile from 4. February 2019, 22:02

Moby / Exclusive to readers of The Observer

Used drive : TSSTcorpCDDVDW SH-222BB Adapter: 1 ID: 0

Read mode : Secure
Utilize accurate stream : Yes
Defeat audio cache : Yes
Make use of C2 pointers : No

Read offset correction : 6
Overread into Lead-In and Lead-Out : No
Fill up missing offset samples with silence : Yes
Delete leading and trailing silent blocks : No
Null samples used in CRC calculations : Yes
Used interface : Native Win32 interface for Win NT & 2000
Gap handling : Appended to previous track

Used output format : User Defined Encoder
Selected bitrate : 1024 kBit/s
Quality : High
Add ID3 tag : No
Command line compressor : C:\Program Files (x86)\Exact Audio Copy\Flac\flac.exe
Additional command line options : -8 -e -p -V -T "ARTIST=%artist%" -T "TITLE=%title%" -T "ALBUM=%albumtitle%" -T "DATE=%year%" -T "TRACKNUMBER=%tracknr%" -T "GENRE=%genre%" -T "PERFORMER=%albuminterpret%" -T "COMPOSER=%composer%" %haslyrics%–tag-from-file=LYRICS="%lyricsfile%"%haslyrics% -T "ALBUMARTIST=%albumartist%" -T "DISCNUMBER=%cdnumber%" -T "TOTALDISCS=%totalcds%" -T "TOTALTRACKS=%numtracks%" -T "COMMENT=%comment%" %source% -o %dest%


TOC of the extracted CD

Track | Start | Length | Start sector | End sector
––––––––––––––––––––––––––––-
1 | 0:00.00 | 5:43.19 | 0 | 25743
2 | 5:43.19 | 4:02.19 | 25744 | 43912
3 | 9:45.38 | 4:02.46 | 43913 | 62108
4 | 13:48.09 | 3:27.74 | 62109 | 77707
5 | 17:16.08 | 3:31.06 | 77708 | 93538
6 | 20:47.14 | 2:12.01 | 93539 | 103439
7 | 22:59.15 | 7:22.72 | 103440 | 136661
8 | 30:22.12 | 6:41.36 | 136662 | 166772
9 | 39:35.48 | 11:56.20 | 178173 | 231892


Track 1

Filename Z:\EAC\Moby - Exclusive to the Readers Of The Observer (2000) [FLAC] (UK Obmoby1cd)\01 First Cool Hive.wav

Pre-gap length 0:00:02.00

Peak level 99.3 %
Extraction speed 2.3 X
Track quality 99.9 %
Test CRC BF08ADEB
Copy CRC BF08ADEB
Accurately ripped (confidence 38) [A1C17D56] (AR v2)
Copy OK

Track 2

Filename Z:\EAC\Moby - Exclusive to the Readers Of The Observer (2000) [FLAC] (UK Obmoby1cd)\02 Porcelain.wav

Pre-gap length 0:00:01.98

Peak level 100.0 %
Extraction speed 2.9 X
Track quality 100.0 %
Test CRC 85332115
Copy CRC 85332115
Accurately ripped (confidence 39) [81AE4C8A] (AR v2)
Copy OK

Track 3

Filename Z:\EAC\Moby - Exclusive to the Readers Of The Observer (2000) [FLAC] (UK Obmoby1cd)\03 Go.wav

Pre-gap length 0:00:01.98

Peak level 100.0 %
Extraction speed 3.2 X
Track quality 100.0 %
Test CRC 0546CAE9
Copy CRC 0546CAE9
Accurately ripped (confidence 38) [41D98704] (AR v2)
Copy OK

Track 4

Filename Z:\EAC\Moby - Exclusive to the Readers Of The Observer (2000) [FLAC] (UK Obmoby1cd)\04 Everloving.wav

Pre-gap length 0:00:01.98

Peak level 100.0 %
Extraction speed 3.2 X
Track quality 100.0 %
Test CRC B9D56A63
Copy CRC B9D56A63
Accurately ripped (confidence 38) [8A1D8CD3] (AR v2)
Copy OK

Track 5

Filename Z:\EAC\Moby - Exclusive to the Readers Of The Observer (2000) [FLAC] (UK Obmoby1cd)\05 Anthem.wav

Pre-gap length 0:00:02.00

Peak level 100.0 %
Extraction speed 3.5 X
Track quality 100.0 %
Test CRC BF8734C3
Copy CRC BF8734C3
Accurately ripped (confidence 38) [09238DBF] (AR v2)
Copy OK

Track 6

Filename Z:\EAC\Moby - Exclusive to the Readers Of The Observer (2000) [FLAC] (UK Obmoby1cd)\06 Now I Let It Go.wav

Pre-gap length 0:00:01.98

Peak level 95.9 %
Extraction speed 3.3 X
Track quality 100.0 %
Test CRC 297AD617
Copy CRC 297AD617
Accurately ripped (confidence 38) [D8B8AE2E] (AR v2)
Copy OK

Track 7

Filename Z:\EAC\Moby - Exclusive to the Readers Of The Observer (2000) [FLAC] (UK Obmoby1cd)\07 God Moving Over The Face of The Waters.wav

Pre-gap length 0:00:01.98

Peak level 100.0 %
Extraction speed 1.9 X
Track quality 99.8 %
Test CRC 6F71D601
Copy CRC 6F71D601
Accurately ripped (confidence 39) [F4AD2E0E] (AR v2)
Copy OK

Track 8

Filename Z:\EAC\Moby - Exclusive to the Readers Of The Observer (2000) [FLAC] (UK Obmoby1cd)\08 Memory Gospel.wav

Pre-gap length 0:00:01.98

Peak level 100.0 %
Extraction speed 2.8 X
Track quality 100.0 %
Test CRC 6BF491D9
Copy CRC 6BF491D9
Accurately ripped (confidence 38) [E30DD5AF] (AR v2)
Copy OK


All tracks accurately ripped

No errors occurred

End of status report

–– CUETools DB Plugin V2.1.6

[CTDB TOCID: HVN1yud1bWVz7JxFDuxv6tco7XM-] found
Submit result: HVN1yud1bWVz7JxFDuxv6tco7XM- has been confirmed
Track | CTDB Status
1 | (49/49) Accurately ripped
2 | (49/49) Accurately ripped
3 | (49/49) Accurately ripped
4 | (49/49) Accurately ripped
5 | (49/49) Accurately ripped
6 | (48/49) Accurately ripped
7 | (48/49) Accurately ripped
8 | (49/49) Accurately ripped


==== Log checksum 1EC1F3AD158A894B6771D1E8CE59F8259D0D245B71E806022E8E0A20BB252948 ====

[CUETools log; Date: 07.05.2021 15:49:07; Version: 2.1.4]
CD-Extra data track length 11:56:20.
[CTDB TOCID: HVN1yud1bWVz7JxFDuxv6tco7XM-] found.
Track | CTDB Status
1 | (70/70) Accurately ripped
2 | (70/70) Accurately ripped
3 | (70/70) Accurately ripped
4 | (70/70) Accurately ripped
5 | (70/70) Accurately ripped
6 | (69/70) Accurately ripped
7 | (69/70) Accurately ripped
8 | (70/70) Accurately ripped
[AccurateRip ID: 000bd360-0050a7db-780c1309] found.
Track [ CRC | V2 ] Status
01 [b29d75f3|a1c17d56] (28+40/68) Accurately ripped
02 [c0963b58|81ae4c8a] (26+42/68) Accurately ripped
03 [f76b4da4|41d98704] (27+40/67) Accurately ripped
04 [b4666059|8a1d8cd3] (27+40/67) Accurately ripped
05 [f34c3b9e|09238dbf] (28+41/69) Accurately ripped
06 [318bbe01|d8b8ae2e] (29+40/69) Accurately ripped
07 [8477657b|f4ad2e0e] (29+41/70) Accurately ripped
08 [a4b30dc5|e30dd5af] (29+41/70) Accurately ripped

Track Peak [ CRC32 ] [W/O NULL] [ LOG ]
– 100,0 [E1A70695] [744628D0]
01 99,3 [BF08ADEB] [E9D950CF] CRC32
02 100,0 [85332115] [5E291235] CRC32
03 100,0 [0546CAE9] [0F9F56DC] CRC32
04 100,0 [B9D56A63] [5C51F431] CRC32
05 100,0 [BF8734C3] [2D358C50] CRC32
06 95,9 [297AD617] [3AA08FC2] CRC32
07 100,0 [6F71D601] [DA78AD71] CRC32
08 100,0 [6BF491D9] [290BB9F2] CRC32

Thanks to the original releaser

See also: