Tags
Language
Tags

Moby - Live (Hotel Tour 2005) [DVD+CD] (2006)

Posted By: gribovar
Moby - Live (Hotel Tour 2005) [DVD+CD] (2006)

Moby - Live (Hotel Tour 2005) [DVD+CD] (2006)
EAC Rip | FLAC (tracks+.cue+log) - 544 MB | MP3 CBR 320 kbps (LAME 3.93) - 189 MB | Covers - 82 MB
DVD9 | Video: MPEG 2, 720x576 (16:9), 25.00 fps | Audio: AC3/PCM, 48.0 KHz, 6 ch/2 ch, 448 Kbps/1536 Kbps | 8,12 GB
Genre: Downtempo, House, Techno, Alternative Rock | RAR 3% Rec. | Label: Mute (dvdstumm240, 0094635488999)

Recorded during the Hotel tour in 2005, the DVD features classic Moby tracks such as Why Does My Heart Feel So Bad?, We Are All Made of Stars, Natural Blues, Go, Porcelain and Lift Me Up as well as a cover of Lou Reed's Walk on the Wild Side. Included on the DVD are the videos for Lift Me Up, Beautiful, Raining Again, Spiders and Dream About Me plus TWO bonus films, unavailable elsewhere. Little Movie #1 is a jaunt around the world, filmed by Moby with 'Dream About Me' as the soundtrack, and shows a glimpse of life on the road while Mr Fish is a humorous puppet film starring Mr. Fish. The DVD comes backed with an exclusive remix CD featuring tracks from the latest album Hotel remixed by, amongst others, Mylo, Tiga, Steve Angello, Booka Shade and Axwell. The live DVD, recorded at Brabathalle, Leuven in May 2005 and directed by George Scott features Moby performing with his band, Laura Dawn (Vocals), Scott Frassetto (Drums), Daron Murphy (Bass/Guitar/Backing Vocals) and Luci Butler (Keyboards/Backing Vocals).
DVD Tracklist:

Live in Leuven 2005:
01. Opening Sequence (My Weakness)
02. Find My Baby
03. Raining Again
04. Natural Blues
05. Spiders
06. Where You End
07. In My Heart
08. Go
09. That's When I Reach For My Revolver
10. Temptation
11. Beautiful
12. Very
13. Next Is The E
14. Porcelain
15. Dream About Me
16. Why Does My Heart Feel So Bad?
17. We Are All Made Of Stars
18. Slipping Away
19. Honey
20. Bodyrock
21. Lift Me Up
22. Walk On The Wild
23. Für Elise
24. Feeling So Real

Total time: 01:52:31

Bonus. Live Tracks:
01. Extreme Ways (03:54)
02. In This World (04:09)
03. Break On Through (03:26)

Videos:
01. Lift Me Up (03:08)
02. Beautiful (Original Version) (03:18)
03. Raining Again (03:49)
04. Spiders (03:45)
05. Dream About Me (03:24)

Other Bonus:
01. Little Movie #1 (03:27)
02. Mr. Fish (02:37)

CD Tracklist (Remixed CD):
01. Lift Me Up (Superdiscount mix - Radio edit)
02. Raining Again (Steve Angello's Vocal mix)
03. Beautiful (Benny Benassi Remix)
04. Slipping Away (Axwell Vocal mix)
05. Where You End (Tiga's All I Need Is to Be Sampled mix)
06. Beautiful (F*** Me I'm Famous Remix by David Guetta & Joachim Garraud)
07. Slipping Away (MHC Radio edit)
08. Dream About Me (Sebastian Ingrosso Remix)
09. Lift Me Up (Mylo mix)
10. Raining Again (Ewan Pearson Vocal)
11. Dream About Me (Booka Shade Remix)
12. Slipping Away (Zloot Remix)
13. Dream About Me (The Shortwave Set Pick 'N' mix)

Total time: 01:19:08

Exact Audio Copy V1.3 from 2. September 2016

EAC extraction logfile from 29. June 2018, 22:56

Moby / Remixed

Used drive : PIONEER DVD-RW DVR-215 Adapter: 1 ID: 2

Read mode : Secure
Utilize accurate stream : Yes
Defeat audio cache : Yes
Make use of C2 pointers : No

Read offset correction : 48
Overread into Lead-In and Lead-Out : No
Fill up missing offset samples with silence : Yes
Delete leading and trailing silent blocks : No
Null samples used in CRC calculations : Yes
Used interface : Native Win32 interface for Win NT & 2000
Gap handling : Appended to previous track

Used output format : User Defined Encoder
Selected bitrate : 1024 kBit/s
Quality : High
Add ID3 tag : No
Command line compressor : C:\Program Files (x86)\Exact Audio Copy\FLAC\FLAC.EXE
Additional command line options : -6 -V -T "COMMENT=Ripped by RRC for new-team org" -T "ARTIST=%artist%" -T "TITLE=%title%" -T "ALBUM=%albumtitle%" -T "DATE=%year%" -T "TRACKNUMBER=%tracknr%" -T "GENRE=%genre%" -T "BAND=%albuminterpret%" -T "ALBUMARTIST=%albuminterpret%" -T "COMPOSER=%composer%" %haslyrics%–tag-from-file=LYRICS="%lyricsfile%"%haslyrics% -T "DISCNUMBER=%cdnumber%" -T "TOTALDISCS=%totalcds%" -T "TOTALTRACKS=%numtracks%" %hascover%–picture="%coverfile%"%hascover% %source%


TOC of the extracted CD

Track | Start | Length | Start sector | End sector
––––––––––––––––––––––––––––-
1 | 0:00.00 | 3:13.12 | 0 | 14486
2 | 3:13.12 | 6:56.56 | 14487 | 45742
3 | 10:09.68 | 7:04.18 | 45743 | 77560
4 | 17:14.11 | 7:31.59 | 77561 | 111444
5 | 24:45.70 | 7:07.67 | 111445 | 143536
6 | 31:53.62 | 6:43.31 | 143537 | 173792
7 | 38:37.18 | 3:36.61 | 173793 | 190053
8 | 42:14.04 | 6:38.31 | 190054 | 219934
9 | 48:52.35 | 6:43.61 | 219935 | 250220
10 | 55:36.21 | 7:09.68 | 250221 | 282463
11 | 62:46.14 | 7:16.42 | 282464 | 315205
12 | 70:02.56 | 4:27.58 | 315206 | 335288
13 | 74:30.39 | 4:38.06 | 335289 | 356144


Track 1

Filename E:\RRCLtd Rip\01-Lift Me Up (Superdiscount mix - Radio edit).wav

Pre-gap length 0:00:02.00

Peak level 100.0 %
Extraction speed 4.5 X
Track quality 100.0 %
Test CRC 0F83DF7B
Copy CRC 0F83DF7B
Accurately ripped (confidence 15) [10D0305D] (AR v2)
Copy OK

Track 2

Filename E:\RRCLtd Rip\02-Raining Again (Steve Angello's Vocal mix).wav

Pre-gap length 0:00:03.23

Peak level 100.0 %
Extraction speed 5.5 X
Track quality 100.0 %
Test CRC 934195AC
Copy CRC 934195AC
Accurately ripped (confidence 15) [29D4E441] (AR v2)
Copy OK

Track 3

Filename E:\RRCLtd Rip\03-Beautiful (Benny Benassi Remix).wav

Pre-gap length 0:00:02.54

Peak level 89.1 %
Extraction speed 6.1 X
Track quality 100.0 %
Test CRC 57426864
Copy CRC 57426864
Accurately ripped (confidence 15) [053D771A] (AR v2)
Copy OK

Track 4

Filename E:\RRCLtd Rip\04-Slipping Away (Axwell Vocal mix).wav

Pre-gap length 0:00:03.09

Peak level 100.0 %
Extraction speed 6.7 X
Track quality 100.0 %
Test CRC 729831CA
Copy CRC 729831CA
Accurately ripped (confidence 15) [47EA709F] (AR v2)
Copy OK

Track 5

Filename E:\RRCLtd Rip\05-Where You End (Tiga's All I Need Is to Be Sampled mix).wav

Pre-gap length 0:00:01.01

Peak level 100.0 %
Extraction speed 7.2 X
Track quality 100.0 %
Test CRC BDE0028F
Copy CRC BDE0028F
Accurately ripped (confidence 15) [93A94B94] (AR v2)
Copy OK

Track 6

Filename E:\RRCLtd Rip\06-Beautiful (Fxxx Me I'm Famous Remix by David Guetta & Joachim Garraud).wav

Pre-gap length 0:00:02.00

Peak level 89.1 %
Extraction speed 7.7 X
Track quality 100.0 %
Test CRC 60A9E333
Copy CRC 60A9E333
Accurately ripped (confidence 15) [E5F10F09] (AR v2)
Copy OK

Track 7

Filename E:\RRCLtd Rip\07-Slipping Away (MHC Radio edit).wav

Pre-gap length 0:00:01.14

Peak level 100.0 %
Extraction speed 6.6 X
Track quality 99.9 %
Test CRC 4F2B2132
Copy CRC 4F2B2132
Accurately ripped (confidence 15) [F0D6F567] (AR v2)
Copy OK

Track 8

Filename E:\RRCLtd Rip\08-Dream About Me (Sebastian Ingrosso Remix).wav

Pre-gap length 0:00:01.20

Peak level 89.1 %
Extraction speed 7.7 X
Track quality 99.9 %
Test CRC B64687D8
Copy CRC B64687D8
Accurately ripped (confidence 15) [59481ED3] (AR v2)
Copy OK

Track 9

Filename E:\RRCLtd Rip\09-Lift Me Up (Mylo mix).wav

Pre-gap length 0:00:03.03

Peak level 100.0 %
Extraction speed 8.7 X
Track quality 100.0 %
Test CRC FEADC0BB
Copy CRC FEADC0BB
Accurately ripped (confidence 15) [2813D10C] (AR v2)
Copy OK

Track 10

Filename E:\RRCLtd Rip\10-Raining Again (Ewan Pearson Vocal).wav

Pre-gap length 0:00:03.19

Peak level 100.0 %
Extraction speed 8.4 X
Track quality 99.9 %
Test CRC CA73BEE0
Copy CRC CA73BEE0
Accurately ripped (confidence 15) [AE79B6EB] (AR v2)
Copy OK

Track 11

Filename E:\RRCLtd Rip\11-Dream About Me (Booka Shade Remix).wav

Pre-gap length 0:00:02.19

Peak level 100.0 %
Extraction speed 8.8 X
Track quality 99.9 %
Test CRC B2854242
Copy CRC B2854242
Accurately ripped (confidence 15) [F7806F2E] (AR v2)
Copy OK

Track 12

Filename E:\RRCLtd Rip\12-Slipping Away (Zloot Remix).wav

Pre-gap length 0:00:02.40

Peak level 100.0 %
Extraction speed 8.9 X
Track quality 100.0 %
Test CRC E368C9E9
Copy CRC E368C9E9
Accurately ripped (confidence 15) [BE0A6DCD] (AR v2)
Copy OK

Track 13

Filename E:\RRCLtd Rip\13-Dream About Me (The Shortwave Set Pick 'N' mix).wav

Pre-gap length 0:00:02.50

Peak level 100.0 %
Extraction speed 9.6 X
Track quality 100.0 %
Test CRC 9A559D5B
Copy CRC 9A559D5B
Accurately ripped (confidence 15) [1386B1E8] (AR v2)
Copy OK


All tracks accurately ripped

No errors occurred

End of status report

–– CUETools DB Plugin V2.1.6

[CTDB TOCID: gEdk3ppz.aPkuwIixQzM5xu3z6A-] found
Submit result: gEdk3ppz.aPkuwIixQzM5xu3z6A- has been confirmed
Track | CTDB Status
1 | (26/26) Accurately ripped
2 | (26/26) Accurately ripped
3 | (26/26) Accurately ripped
4 | (26/26) Accurately ripped
5 | (26/26) Accurately ripped
6 | (26/26) Accurately ripped
7 | (26/26) Accurately ripped
8 | (26/26) Accurately ripped
9 | (26/26) Accurately ripped
10 | (25/26) Accurately ripped
11 | (26/26) Accurately ripped
12 | (25/26) Accurately ripped
13 | (25/26) Accurately ripped


==== Log checksum 496A819239D5F1D82B8FA100892B47D48D4720F8809D7C33BEB473B0C5E4B738 ====

[CUETools log; Date: 16.04.2021 22:51:27; Version: 2.1.4]
[CTDB TOCID: gEdk3ppz.aPkuwIixQzM5xu3z6A-] found.
Track | CTDB Status
1 | (43/43) Accurately ripped
2 | (43/43) Accurately ripped
3 | (43/43) Accurately ripped
4 | (43/43) Accurately ripped
5 | (43/43) Accurately ripped
6 | (43/43) Accurately ripped
7 | (43/43) Accurately ripped
8 | (43/43) Accurately ripped
9 | (43/43) Accurately ripped
10 | (42/43) Accurately ripped
11 | (43/43) Accurately ripped
12 | (42/43) Accurately ripped
13 | (41/43) Accurately ripped
[AccurateRip ID: 002663a8-0182c71a-bc128c0d] found.
Track [ CRC | V2 ] Status
01 [e96c3dea|10d0305d] (05+18/23) Accurately ripped
02 [40677399|29d4e441] (05+18/23) Accurately ripped
03 [f079d88b|053d771a] (05+18/23) Accurately ripped
04 [e99c5f59|47ea709f] (05+18/23) Accurately ripped
05 [c0284b96|93a94b94] (05+18/23) Accurately ripped
06 [9f2d5b17|e5f10f09] (05+18/23) Accurately ripped
07 [86a7a159|f0d6f567] (05+18/23) Accurately ripped
08 [710d9dfa|59481ed3] (05+18/23) Accurately ripped
09 [419d39b6|2813d10c] (05+18/23) Accurately ripped
10 [81c4c07b|ae79b6eb] (05+18/23) Accurately ripped
11 [ec446e62|f7806f2e] (04+18/22) Accurately ripped
12 [f6c52265|be0a6dcd] (05+18/23) Accurately ripped
13 [306fc998|1386b1e8] (03+18/21) Accurately ripped

Track Peak [ CRC32 ] [W/O NULL] [ LOG ]
– 100,0 [AD488A58] [F06BD929]
01 100,0 [0F83DF7B] [20063E08] CRC32
02 100,0 [934195AC] [6A77A91D] CRC32
03 89,1 [57426864] [1280E197] CRC32
04 100,0 [729831CA] [5AB3119C] CRC32
05 100,0 [BDE0028F] [9D62DA76] CRC32
06 89,1 [60A9E333] [05633EB9] CRC32
07 100,0 [4F2B2132] [0683D097] CRC32
08 89,1 [B64687D8] [536BB6BE] CRC32
09 100,0 [FEADC0BB] [6F2A495B] CRC32
10 100,0 [CA73BEE0] [3196B1CA] CRC32
11 100,0 [B2854242] [98D0D2DA] CRC32
12 100,0 [E368C9E9] [A186D88E] CRC32
13 100,0 [9A559D5B] [D05B6591] CRC32

Moby - Live (Hotel Tour 2005) [DVD+CD] (2006)

Moby - Live (Hotel Tour 2005) [DVD+CD] (2006)

Moby - Live (Hotel Tour 2005) [DVD+CD] (2006)

Moby - Live (Hotel Tour 2005) [DVD+CD] (2006)

Moby - Live (Hotel Tour 2005) [DVD+CD] (2006)

Moby - Live (Hotel Tour 2005) [DVD+CD] (2006)

Moby - Live (Hotel Tour 2005) [DVD+CD] (2006)

Moby - Live (Hotel Tour 2005) [DVD+CD] (2006)

Thanks to RRC

See also: