Tags
Language
Tags

Moby - South Side (Featuring Gwen Stefani) [Maxi-Single] (2000)

Posted By: gribovar
Moby - South Side (Featuring Gwen Stefani) [Maxi-Single] (2000)

Moby - South Side (Featuring Gwen Stefani) [Maxi-Single] (2000)
EAC Rip | FLAC (tracks+.cue+log) - 266 MB | MP3 CBR 320 kbps (LAME 3.93) - 96 MB | Covers - 36 MB
Genre: Breakbeat, House, Downtempo | RAR 3% Rec. | Label: V2 Records (63881-27674-2)

No one, least of all Moby, expected the album Play to be the runaway success that it was. The album had been out for nearly a year and a half by the time "South Side" was plucked for single release. "South Side," with added vocals courtesy of No Doubt's Gwen Stefani, proved to be a smash with considerable staying power, eventually peaking in the U.S. Top 20. The maxi-single, stocked with remixes and bonus tracks, proved quite a treat for fans. Not only did it include the Gwen Stefani version, but also the original album version (for comparison purposes), two remixes, one instrumental, and two bonus tracks. The version of "South Side" with Gwen Stefani is a no-brainer - turning the song into a duet immediately fleshed out the vocals and made it stronger and edgier than the original. The "Hybrid Dishing Pump Remix" is a trippy, frenetic, ambient, high energy track whose beat doesn't even start until two minutes into the song. The "Pete Heller Park Lane Vocal" is a colder, bass-heavy mix, slightly inferior to the "Hybrid" Remix, which is also included as an instrumental. "Ain't Never Learned," one of the bonus tracks, is unavailable on any Moby album (but is available on the Tomb Raider soundtrack), and is a raw, techno/trancy dance cut. The final cut, "The Sun Never Stops Setting," is a majestic, cinematic, and meditative piece of mood music, and can also be found on Play/The B-Sides. This maxi-single definitely provides the consumer and collector their money's worth, and is a welcome addition to the Moby catalog.
Tracklist:
01. South Side (Feat. Gwen Stefani) (Single Version)
02. South Side (Feat. Gwen Stefani) (Hybrid Dishing Pump Remix)
03. South Side (Album Version)
04. South Side (Pete Heller Park Lane Vocal)
05. Ain't Never Learned
06. South Side (Hybrid Dishing Pump Instrumental)
07. The Sun Never Stops Setting

Total time: 41:05

Exact Audio Copy V1.1 from 23. June 2015

EAC extraction logfile from 12. March 2017, 18:12

Moby / South Side

Used drive : HL-DT-STDVD+-RW GSA-H31L Adapter: 1 ID: 0

Read mode : Secure
Utilize accurate stream : Yes
Defeat audio cache : Yes
Make use of C2 pointers : No

Read offset correction : 102
Overread into Lead-In and Lead-Out : No
Fill up missing offset samples with silence : Yes
Delete leading and trailing silent blocks : No
Null samples used in CRC calculations : Yes
Used interface : Native Win32 interface for Win NT & 2000
Gap handling : Appended to previous track

Used output format : User Defined Encoder
Selected bitrate : 768 kBit/s
Quality : High
Add ID3 tag : No
Command line compressor : C:\Program Files (x86)\Exact Audio Copy\FLAC\FLAC.EXE
Additional command line options : -8 -V -T "ARTIST=%artist%" -T "TITLE=%title%" -T "ALBUM=%albumtitle%" -T "DATE=%year%" -T "TRACKNUMBER=%tracknr%" -T "TOTALTRACKS=%numtracks%" -T "GENRE=%genre%" -T "ALBUMARTIST=%albumartist%" -T "ALBUM ARTIST=%albumartist%" -T "COMMENT=EAC Secure Mode, Test & Copy, AccurateRip, FLAC -8" %source%


TOC of the extracted CD

Track | Start | Length | Start sector | End sector
––––––––––––––––––––––––––––-
1 | 0:00.00 | 3:50.09 | 0 | 17258
2 | 3:50.09 | 8:29.32 | 17259 | 55465
3 | 12:19.41 | 3:50.11 | 55466 | 72726
4 | 16:09.52 | 8:50.37 | 72727 | 112513
5 | 25:00.14 | 3:49.22 | 112514 | 129710
6 | 28:49.36 | 7:56.70 | 129711 | 165480
7 | 36:46.31 | 4:18.73 | 165481 | 184903


Track 1

Filename F:\Torrents\Downloads\Moby - South Side (2000) [FLAC] {63881-27674-2}\01 - South Side (feat. Gwen Stefani) [Single Version].wav

Pre-gap length 0:00:02.00

Peak level 95.4 %
Extraction speed 1.5 X
Track quality 100.0 %
Test CRC CF420DA8
Copy CRC CF420DA8
Accurately ripped (confidence 17) [8745E2CE] (AR v2)
Copy OK

Track 2

Filename F:\Torrents\Downloads\Moby - South Side (2000) [FLAC] {63881-27674-2}\02 - South Side (feat. Gwen Stefani) [Hybrid Dishing Pump Remix].wav

Pre-gap length 0:00:01.45

Peak level 100.0 %
Extraction speed 2.0 X
Track quality 100.0 %
Test CRC 82D52928
Copy CRC 82D52928
Accurately ripped (confidence 17) [A3FA68ED] (AR v2)
Copy OK

Track 3

Filename F:\Torrents\Downloads\Moby - South Side (2000) [FLAC] {63881-27674-2}\03 - South Side [Album Version].wav

Pre-gap length 0:00:01.45

Peak level 98.8 %
Extraction speed 2.0 X
Track quality 100.0 %
Test CRC 6FC5CAA7
Copy CRC 6FC5CAA7
Accurately ripped (confidence 16) [EAF66345] (AR v2)
Copy OK

Track 4

Filename F:\Torrents\Downloads\Moby - South Side (2000) [FLAC] {63881-27674-2}\04 - South Side [Pete Heller Park Lane Vocal].wav

Pre-gap length 0:00:01.45

Peak level 100.0 %
Extraction speed 2.4 X
Track quality 100.0 %
Test CRC DC370FCC
Copy CRC DC370FCC
Accurately ripped (confidence 17) [23CE6247] (AR v2)
Copy OK

Track 5

Filename F:\Torrents\Downloads\Moby - South Side (2000) [FLAC] {63881-27674-2}\05 - Ain't Never Learned.wav

Pre-gap length 0:00:01.45

Peak level 84.1 %
Extraction speed 2.4 X
Track quality 100.0 %
Test CRC 0CAF439A
Copy CRC 0CAF439A
Accurately ripped (confidence 17) [4154C0EC] (AR v2)
Copy OK

Track 6

Filename F:\Torrents\Downloads\Moby - South Side (2000) [FLAC] {63881-27674-2}\06 - South Side [Hybrid Dishing Pump Instrumental].wav

Pre-gap length 0:00:01.45

Peak level 100.0 %
Extraction speed 2.8 X
Track quality 100.0 %
Test CRC 6D06005B
Copy CRC 6D06005B
Accurately ripped (confidence 17) [EA1A6018] (AR v2)
Copy OK

Track 7

Filename F:\Torrents\Downloads\Moby - South Side (2000) [FLAC] {63881-27674-2}\07 - The Sun Never Stops Setting.wav

Pre-gap length 0:00:01.45

Peak level 100.0 %
Extraction speed 2.5 X
Track quality 99.9 %
Test CRC C56D9C99
Copy CRC C56D9C99
Accurately ripped (confidence 17) [DA54109F] (AR v2)
Copy OK


All tracks accurately ripped

No errors occurred

End of status report

==== Log checksum BBAA4BAF7A7ABC1A28AD296E1FAAF02CACBAAF59DF3F7B229B9A0472D393ABDF ====

[CUETools log; Date: 18.04.2021 14:55:16; Version: 2.1.4]
[CTDB TOCID: .LngG2uWxW.eBY_E4c38Glpmkvo-] found.
Track | CTDB Status
1 | (61/61) Accurately ripped
2 | (61/61) Accurately ripped
3 | (61/61) Accurately ripped
4 | (61/61) Accurately ripped
5 | (61/61) Accurately ripped
6 | (61/61) Accurately ripped
7 | (61/61) Accurately ripped
[AccurateRip ID: 000b430e-004435f4-4609a107] found.
Track [ CRC | V2 ] Status
01 [c4f82e37|8745e2ce] (18+29/47) Accurately ripped
02 [754d9533|a3fa68ed] (17+29/46) Accurately ripped
03 [413c6468|eaf66345] (17+28/45) Accurately ripped
04 [4dbebecc|23ce6247] (18+29/47) Accurately ripped
05 [b8ea583e|4154c0ec] (17+29/46) Accurately ripped
06 [b8dc7937|ea1a6018] (18+29/47) Accurately ripped
07 [82dc7071|da54109f] (18+29/47) Accurately ripped

Track Peak [ CRC32 ] [W/O NULL] [ LOG ]
– 100,0 [3B50E0DB] [0BC710E5]
01 95,4 [CF420DA8] [0F59B68F] CRC32
02 100,0 [82D52928] [75152224] CRC32
03 98,8 [6FC5CAA7] [B55530D4] CRC32
04 100,0 [DC370FCC] [328F3F8B] CRC32
05 84,1 [0CAF439A] [17D4AABD] CRC32
06 100,0 [6D06005B] [4A78AE02] CRC32
07 99,9 [C56D9C99] [51919F8F] CRC32

Thanks to the original releaser

See also: