Subcategories

Monastere De Gyuto - Tibet: La Voix Des Tantra (Voice Of The Tantra) (2000) REPOST

Posted By: uff
Monastere De Gyuto - Tibet: La Voix Des Tantra (Voice Of The Tantra) (2000) REPOST

Monastere De Gyuto - Tibet: La Voix Des Tantra (Voice Of The Tantra) (2000)
World | 2cd | EAC Rip | Ape + Cue + Log | covers
Ocora, C 560133-34 | rec: 1975 | 540Mb

Recorded by Radio France on October 3, 1975 during the Festival d'Automne at the Théâtre des Bouffes du Nord. Comes in a long digipak with an attached 26 page booklet of notes in French, English and German.

Track listing
cd1:
01. Tantra Dit De 'L'Assemblee Secrete' (8:44)
02. Initiation Au Culte De Yamantaka (23:54)
03. Rituel De Consecration (17:01)

cd2:
01. 'Le Grand Noir' (Mahakala) (25:34)
02. Libation Doree (10:48)
03. Priere De 'Bon Augure' (3:29)

Exact Audio Copy V0.99 prebeta 5 from 4. May 2009

Отчёт EAC об извлечении, выполненном 10. ноября 2010, 23:25

Monastere De Gyuto / Tibet: La Voix Des Tantra CD1

Дисковод: PIONEER DVD-RW DVR-112D Adapter: 0 ID: 0

Режим чтения : Достоверность
Использование точного потока : Да
Отключение кэша аудио : Да
Использование указателей C2 : Нет

Коррекция смещения при чтении : 48
Способность читать области Lead-in и Lead-out : Нет
Заполнение пропущенных сэмплов тишиной : Да
Удаление блоков с тишиной в начале и конце : Нет
При вычислениях CRC использовались нулевые сэмплы : Да
Интерфейс : Встроенный Win32-интерфейс для Win NT/2000

Выходной формат : Внутренние WAV-операции
Формат сэмплов : 44.100 Гц; 16 бит; стерео


TOC извлечённого CD

Трек | Старт | Длительность | Начальный сектор | Конечный сектор
––––––––––––––––––––––––––––––––––-
1 | 0:00.00 | 8:44.13 | 0 | 39312
2 | 8:44.13 | 23:54.19 | 39313 | 146881
3 | 32:38.32 | 17:01.57 | 146882 | 223513


Характеристики диапазона извлечения и сообщения об ошибках

Выбранный диапазон

Имя файла F:\Upload\Choovak\Monastere De Gyuto - Tibet ~ La Voix Des Tantra [Voice Of The Tantra]\La Voix Des Tantra CD1\Monastere De Gyuto - Tibet La Voix Des Tantra CD1.wav

Пиковый уровень 86.5 %
Качество диапазона 99.9 %
CRC теста E8D41CB9
CRC копии E8D41CB9
Копирование… OK

Ошибок не произошло


AccurateRip: сводка

Трек 1 точное извлечение (доверие 3) [49ABD7D9]
Трек 2 точное извлечение (доверие 3) [2728D471]
Трек 3 точное извлечение (доверие 3) [A5B394BB]

Все треки извлечены точно

Конец отчёта
––

Exact Audio Copy V0.99 prebeta 5 from 4. May 2009

Отчёт EAC об извлечении, выполненном 10. ноября 2010, 23:25

Monastere De Gyuto / Tibet: La Voix Des Tantra CD2

Дисковод: PIONEER DVD-RW DVR-117F Adapter: 3 ID: 0

Режим чтения : Достоверность
Использование точного потока : Да
Отключение кэша аудио : Да
Использование указателей C2 : Нет

Коррекция смещения при чтении : 48
Способность читать области Lead-in и Lead-out : Нет
Заполнение пропущенных сэмплов тишиной : Да
Удаление блоков с тишиной в начале и конце : Нет
При вычислениях CRC использовались нулевые сэмплы : Да
Интерфейс : Встроенный Win32-интерфейс для Win NT/2000

Выходной формат : Внутренние WAV-операции
Формат сэмплов : 44.100 Гц; 16 бит; стерео


TOC извлечённого CD

Трек | Старт | Длительность | Начальный сектор | Конечный сектор
––––––––––––––––––––––––––––––––––-
1 | 0:00.00 | 25:34.12 | 0 | 115061
2 | 25:34.12 | 10:48.55 | 115062 | 163716
3 | 36:22.67 | 3:29.58 | 163717 | 179449


Характеристики диапазона извлечения и сообщения об ошибках

Выбранный диапазон

Имя файла F:\Upload\Choovak\Monastere De Gyuto - Tibet ~ La Voix Des Tantra [Voice Of The Tantra]\La Voix Des Tantra CD2\Monastere De Gyuto - Tibet La Voix Des Tantra CD2.wav

Пиковый уровень 91.2 %
Качество диапазона 100.0 %
CRC теста E57D54B5
CRC копии E57D54B5
Копирование… OK

Ошибок не произошло

Конец отчёта



[CUETools log; Date: 2016.04.11. 12:41:12; Version: 2.1.5]
[CTDB TOCID: K5Mxq35wuEv9DsVlBmkScSoXSzI-] found.
Track | CTDB Status
1 | (4/4) Accurately ripped
2 | (4/4) Accurately ripped
3 | (4/4) Accurately ripped
[AccurateRip ID: 0006406d-001590d1-1f0ba403] found.
Track [ CRC | V2 ] Status
01 [49abd7d9|59a5c986] (4+0/4) Accurately ripped
02 [2728d471|0f3c220b] (4+0/4) Accurately ripped
03 [a5b394bb|5973f6aa] (4+0/4) Accurately ripped

Track Peak [ CRC32 ] [W/O NULL]
– 86,5 [E8D41CB9] [72AAB82B]
01 78,0 [9F9D8BDD] [17E40F70]
02 59,1 [FDE2BB17] [0EF2F83D]
03 86,5 [5D822940] [95621AB7]

[CUETools log; Date: 2016.04.11. 12:42:35; Version: 2.1.5]
[CTDB TOCID: GSW5gGCFqkId0I1s_GngjzgoOcg-] found.
Track | CTDB Status
1 | (4/4) Accurately ripped
2 | (4/4) Accurately ripped
3 | (4/4) Accurately ripped
[AccurateRip ID: 0006fdf5-0015f564-20095803] found.
Track [ CRC | V2 ] Status
01 [ea477dfe|e29bde50] (0+0/4) No match
02 [cb02e88a|6c273c2e] (0+0/4) No match
03 [fdccbccf|10f5f8a9] (0+0/3) No match
Offsetted by 48:
01 [1336668d] (4/4) Accurately ripped
02 [9fe373fd] (4/4) Accurately ripped
03 [33d54945] (3/3) Accurately ripped

Track Peak [ CRC32 ] [W/O NULL]
– 91,2 [E57D54B5] [C4180A4D]
01 91,2 [C071F81E] [84EFF484]
02 91,2 [927B02A8] [B36A01EA]
03 69,3 [5FA17FCE] [1C2A3BEF]



Thx to choovak
Bigfile
Datafile

password: asd