Tags
Language
Tags

VA - Monster Ballads: The Ultimate Set (2009)

Posted By: Rtax
VA - Monster Ballads: The Ultimate Set (2009)

VA - Monster Ballads: The Ultimate Set (2009)
EAC Rip | FLAC (tracks, cue, log) - 1.5 GB | MP3 CBR 320 kbps - 509 MB
3:42:34 | Rock, Metal, Ballad | Label: Razor & Tie

2009 collection of heart-tugging, tear-jerking rockers. Following up on the success of the best-selling Monster Ballads and Monsters of Rock brands, you've got a brand new chance to remember yesterday with Monster Ballads - The Ultimate Set. Bringing together huge power ballads with more mega-stars, more hits, and more hair than ever before, Monster Ballads - The Ultimate Set is gonna take you there with the biggest Pop Metal acts ever! 16 tracks including cuts from Warrant, Skid Row, Kiss, Winger, Scorpions, Mr. Big and many others.

Tracklist
CD 1
1. Skid Row – I Remember You
2. Winger – Headed For A Heartbreak
3. White Lion – When The Children Cry
4. Mr. Big – To Be With You
5. Damn Yankees – High Enough
6. Saigon Kick – Love Is On The Way
7. Enuff Z'nuff – Fly High Michelle
8. Skid Row – 18 And Life
9. Faster Pussycat – House Of Pain
10. White Lion – Wait
11. Kix – Don't Close Your Eyes
12. Mr. Big – Just Take My Heart
13. Winger – Miles Away

CD 2
1. Cinderella – Don't Know What You Got ('Till It's Gone)
2. Whitesnake – Is This Love
3. Tesla – Love Song
4. Kiss – Forever
5. Steelheart – I'll Never Let You Go (Angel Eyes)
6. Scorpions – Winds Of Change
7. Extreme – More Than Words
8. Cinderella – Nobody's Fool
9. Nelson – Only Time Will Tell
10. Giant – I'll See You In My Dreams
11. Whitesnake – Here I Go Again
12. L.A. Guns – The Ballad Of Jayne
13. Styx – Show Me The Way

CD 3
1. Poison – Every Rose Has Its Thorn
2. Slaughter – Fly To The Angels
3. Sheriff – When I'm With You
4. Queensryche – Silent Lucidity
5. Poison – Something To Believe In
6. Vixen – Cryin'
7. Great White – The Angel Song
8. Alias – More Than Words Can Say
9. Poison – I Won't Forget You
10. Stryper – Honestly
11. Slaughter – Spend My Life
12. Vixen – Edge Of A Broken Heart

CD 4
1. Warrant – Heaven
2. Bad English – When I See You Smile
3. Europe – Carrie
4. Firehouse – Love Of A Lifetime
5. Cheap Trick – The Flame
6. Warrant – I Saw Red
7. REO Speedwagon – Can't Fight This Feeling Anymore
8. Bad English – Price Of Love
9. Danger Danger – Bang Bang
10. Survivor – The Search Is Over
11. Firehouse – When I Look Into Your Eyes
12. Bonham – Wait For You
Exact Audio Copy V1.0 beta 3 from 29. August 2011

EAC extraction logfile from 22. January 2014, 18:06

Various / Monster Ballads Ultimate Disc 1

Used drive : HL-DT-STBD-RE WH14NS40 Adapter: 3 ID: 1

Read mode : Secure
Utilize accurate stream : Yes
Defeat audio cache : Yes
Make use of C2 pointers : No

Read offset correction : 6
Overread into Lead-In and Lead-Out : No
Fill up missing offset samples with silence : Yes
Delete leading and trailing silent blocks : No
Null samples used in CRC calculations : Yes
Used interface : Native Win32 interface for Win NT & 2000
Gap handling : Appended to previous track

Used output format : User Defined Encoder
Selected bitrate : 1024 kBit/s
Quality : High
Add ID3 tag : No
Command line compressor : C:\Program Files (x86)\Exact Audio Copy\Flac\flac.exe
Additional command line options : -8 -V -T "ARTIST=%artist%" -T "TITLE=%title%" -T "ALBUM=%albumtitle%" -T "DATE=%year%" -T "TRACKNUMBER=%tracknr%" -T "GENRE=%genre%" -T "PERFORMER=%albuminterpret%" -T "COMPOSER=%composer%" %haslyrics%–tag-from-file=LYRICS="%lyricsfile%"%haslyrics% -T "ALBUMARTIST=%albumartist%" -T "DISCNUMBER=%cdnumber%" -T "TOTALDISCS=%totalcds%" -T "TOTALTRACKS=%numtracks%" -T "COMMENT=%comment%" %source% -o %dest%


TOC of the extracted CD

Track | Start | Length | Start sector | End sector
––––––––––––––––––––––––––––-
1 | 0:00.00 | 5:14.17 | 0 | 23566
2 | 5:14.17 | 3:59.38 | 23567 | 41529
3 | 9:13.55 | 4:19.52 | 41530 | 61006
4 | 13:33.32 | 3:20.05 | 61007 | 76011
5 | 16:53.37 | 4:17.43 | 76012 | 95329
6 | 21:11.05 | 4:24.37 | 95330 | 115166
7 | 25:35.42 | 4:15.00 | 115167 | 134291
8 | 29:50.42 | 3:49.70 | 134292 | 151536
9 | 33:40.37 | 5:46.10 | 151537 | 177496
10 | 39:26.47 | 4:01.20 | 177497 | 195591
11 | 43:27.67 | 4:16.28 | 195592 | 214819
12 | 47:44.20 | 4:23.65 | 214820 | 234609
13 | 52:08.10 | 4:10.17 | 234610 | 253376


Track 1

Filename I:\Music\Monster Ballads Ultimate\Disc 1\01 - Skid Row - I Remember You.wav

Pre-gap length 0:00:02.00

Peak level 100.0 %
Extraction speed 2.6 X
Track quality 100.0 %
Test CRC 50D669B0
Copy CRC 50D669B0
Accurately ripped (confidence 2) [71197128] (AR v1)
Copy OK

Track 2

Filename I:\Music\Monster Ballads Ultimate\Disc 1\02 - Winger - Headed For A Heartbreak.wav

Peak level 100.0 %
Extraction speed 2.1 X
Track quality 100.0 %
Test CRC A5476E4C
Copy CRC A5476E4C
Accurately ripped (confidence 2) [C4267227] (AR v1)
Copy OK

Track 3

Filename I:\Music\Monster Ballads Ultimate\Disc 1\03 - White Lion - When The Children Cry.wav

Peak level 100.0 %
Extraction speed 1.3 X
Track quality 100.0 %
Test CRC CEADB5B7
Copy CRC CEADB5B7
Accurately ripped (confidence 2) [35592236] (AR v1)
Copy OK

Track 4

Filename I:\Music\Monster Ballads Ultimate\Disc 1\04 - Mr. Big - To Be With You.wav

Peak level 100.0 %
Extraction speed 1.3 X
Track quality 100.0 %
Test CRC 2E477FA8
Copy CRC 2E477FA8
Accurately ripped (confidence 3) [B8777FF3] (AR v1)
Copy OK

Track 5

Filename I:\Music\Monster Ballads Ultimate\Disc 1\05 - Damn Yankees - High Enough.wav

Peak level 100.0 %
Extraction speed 1.5 X
Track quality 100.0 %
Test CRC BBF892A2
Copy CRC BBF892A2
Accurately ripped (confidence 3) [23CE7CF3] (AR v1)
Copy OK

Track 6

Filename I:\Music\Monster Ballads Ultimate\Disc 1\06 - Saigon Kick - Love Is On The Way.wav

Peak level 100.0 %
Extraction speed 1.6 X
Track quality 100.0 %
Test CRC 66F3FA1B
Copy CRC 66F3FA1B
Accurately ripped (confidence 2) [66071958] (AR v1)
Copy OK

Track 7

Filename I:\Music\Monster Ballads Ultimate\Disc 1\07 - E'nuff Z'nuff - Fly High Michelle.wav

Peak level 100.0 %
Extraction speed 1.6 X
Track quality 100.0 %
Test CRC 0D9FCC3E
Copy CRC 0D9FCC3E
Accurately ripped (confidence 2) [11A729CC] (AR v1)
Copy OK

Track 8

Filename I:\Music\Monster Ballads Ultimate\Disc 1\08 - Skid Row - 18 And Life.wav

Peak level 100.0 %
Extraction speed 1.7 X
Track quality 100.0 %
Test CRC FC21652E
Copy CRC FC21652E
Accurately ripped (confidence 2) [6DEA6165] (AR v1)
Copy OK

Track 9

Filename I:\Music\Monster Ballads Ultimate\Disc 1\09 - Faster Pussycat - House of Pain.wav

Peak level 86.9 %
Extraction speed 1.9 X
Track quality 100.0 %
Test CRC 218A2F33
Copy CRC 218A2F33
Accurately ripped (confidence 2) [5981A3D1] (AR v1)
Copy OK

Track 10

Filename I:\Music\Monster Ballads Ultimate\Disc 1\10 - White Lion - Wait.wav

Peak level 100.0 %
Extraction speed 1.9 X
Track quality 100.0 %
Test CRC 113D781D
Copy CRC 113D781D
Accurately ripped (confidence 2) [F5D96294] (AR v1)
Copy OK

Track 11

Filename I:\Music\Monster Ballads Ultimate\Disc 1\11 - Kix - Don't Close Your Eyes.wav

Peak level 100.0 %
Extraction speed 2.0 X
Track quality 100.0 %
Test CRC 828028FE
Copy CRC 828028FE
Accurately ripped (confidence 3) [321B3589] (AR v1)
Copy OK

Track 12

Filename I:\Music\Monster Ballads Ultimate\Disc 1\12 - Mr. Big - Just Take My Heart.wav

Peak level 100.0 %
Extraction speed 2.1 X
Track quality 100.0 %
Test CRC BD093944
Copy CRC BD093944
Accurately ripped (confidence 2) [EE56CD96] (AR v1)
Copy OK

Track 13

Filename I:\Music\Monster Ballads Ultimate\Disc 1\13 - Winger - Miles Away.wav

Peak level 100.0 %
Extraction speed 2.1 X
Track quality 100.0 %
Test CRC BDBC6759
Copy CRC BDBC6759
Accurately ripped (confidence 3) [1434E1D3] (AR v1)
Copy OK


All tracks accurately ripped

No errors occurred

End of status report

–– CUETools DB Plugin V2.1.4

[CTDB TOCID: PzTIH..Mfodk7rL_sSSP3gkRWRw-] found
Submit result: PzTIH..Mfodk7rL_sSSP3gkRWRw- has been confirmed
Track | CTDB Status
1 | (2/2) Accurately ripped
2 | (2/2) Accurately ripped
3 | (2/2) Accurately ripped
4 | (2/2) Accurately ripped
5 | (2/2) Accurately ripped
6 | (2/2) Accurately ripped
7 | (2/2) Accurately ripped
8 | (2/2) Accurately ripped
9 | (2/2) Accurately ripped
10 | (2/2) Accurately ripped
11 | (2/2) Accurately ripped
12 | (2/2) Accurately ripped
13 | (2/2) Accurately ripped


==== Log checksum FACBEEDFBB5CA2E57A7FFAE4B8AC36CF6354F4DC1C7D1F17A9EC9D3CA698F561 ====


Exact Audio Copy V1.0 beta 3 from 29. August 2011

EAC extraction logfile from 22. January 2014, 19:56

Various / Monster Ballads Ultimate Disc 2

Used drive : HL-DT-STBD-RE WH14NS40 Adapter: 3 ID: 1

Read mode : Secure
Utilize accurate stream : Yes
Defeat audio cache : Yes
Make use of C2 pointers : No

Read offset correction : 6
Overread into Lead-In and Lead-Out : No
Fill up missing offset samples with silence : Yes
Delete leading and trailing silent blocks : No
Null samples used in CRC calculations : Yes
Used interface : Native Win32 interface for Win NT & 2000
Gap handling : Appended to previous track

Used output format : User Defined Encoder
Selected bitrate : 1024 kBit/s
Quality : High
Add ID3 tag : No
Command line compressor : C:\Program Files (x86)\Exact Audio Copy\Flac\flac.exe
Additional command line options : -8 -V -T "ARTIST=%artist%" -T "TITLE=%title%" -T "ALBUM=%albumtitle%" -T "DATE=%year%" -T "TRACKNUMBER=%tracknr%" -T "GENRE=%genre%" -T "PERFORMER=%albuminterpret%" -T "COMPOSER=%composer%" %haslyrics%–tag-from-file=LYRICS="%lyricsfile%"%haslyrics% -T "ALBUMARTIST=%albumartist%" -T "DISCNUMBER=%cdnumber%" -T "TOTALDISCS=%totalcds%" -T "TOTALTRACKS=%numtracks%" -T "COMMENT=%comment%" %source% -o %dest%


TOC of the extracted CD

Track | Start | Length | Start sector | End sector
––––––––––––––––––––––––––––-
1 | 0:00.00 | 5:53.27 | 0 | 26501
2 | 5:53.27 | 4:42.60 | 26502 | 47711
3 | 10:36.12 | 5:22.40 | 47712 | 71901
4 | 15:58.52 | 3:50.20 | 71902 | 89171
5 | 19:48.72 | 4:59.20 | 89172 | 111616
6 | 24:48.17 | 5:11.50 | 111617 | 134991
7 | 29:59.67 | 4:11.15 | 134992 | 153831
8 | 34:11.07 | 4:47.10 | 153832 | 175366
9 | 38:58.17 | 4:16.10 | 175367 | 194576
10 | 43:14.27 | 4:45.00 | 194577 | 215951
11 | 47:59.27 | 4:34.48 | 215952 | 236549
12 | 52:34.00 | 4:32.72 | 236550 | 257021
13 | 57:06.72 | 4:35.23 | 257022 | 277669


Track 1

Filename I:\Music\Monster Ballads Ultimate\Disc 2\01 - Cinderella - Don't Know What You Got (Till It's Gone).wav

Pre-gap length 0:00:02.00

Peak level 100.0 %
Extraction speed 3.7 X
Track quality 100.0 %
Test CRC EA4250D1
Copy CRC EA4250D1
Accurately ripped (confidence 2) [706C5157] (AR v1)
Copy OK

Track 2

Filename I:\Music\Monster Ballads Ultimate\Disc 2\02 - Whitesnake - Is This Love.wav

Peak level 100.0 %
Extraction speed 2.4 X
Track quality 100.0 %
Test CRC 84CBA995
Copy CRC 84CBA995
Accurately ripped (confidence 2) [970CC328] (AR v1)
Copy OK

Track 3

Filename I:\Music\Monster Ballads Ultimate\Disc 2\03 - Tesla - Love Song.wav

Peak level 93.4 %
Extraction speed 1.5 X
Track quality 100.0 %
Test CRC B25606A7
Copy CRC B25606A7
Accurately ripped (confidence 2) [56B598CD] (AR v1)
Copy OK

Track 4

Filename I:\Music\Monster Ballads Ultimate\Disc 2\04 - Kiss - Forever.wav

Peak level 100.0 %
Extraction speed 1.6 X
Track quality 100.0 %
Test CRC 6C5CCD36
Copy CRC 6C5CCD36
Accurately ripped (confidence 2) [C3E49DAE] (AR v1)
Copy OK

Track 5

Filename I:\Music\Monster Ballads Ultimate\Disc 2\05 - Steelheart - I'll Never Let You Go.wav

Peak level 100.0 %
Extraction speed 1.7 X
Track quality 100.0 %
Test CRC E4614EA5
Copy CRC E4614EA5
Accurately ripped (confidence 2) [E7DFDBA3] (AR v1)
Copy OK

Track 6

Filename I:\Music\Monster Ballads Ultimate\Disc 2\06 - Scorpions - Wind Of Change.wav

Peak level 100.0 %
Extraction speed 1.8 X
Track quality 100.0 %
Test CRC D29DC103
Copy CRC D29DC103
Accurately ripped (confidence 2) [FD24611E] (AR v1)
Copy OK

Track 7

Filename I:\Music\Monster Ballads Ultimate\Disc 2\07 - Extreme - More Than Words.wav

Peak level 100.0 %
Extraction speed 1.9 X
Track quality 100.0 %
Test CRC BB1B614A
Copy CRC BB1B614A
Accurately ripped (confidence 2) [4F29DB02] (AR v1)
Copy OK

Track 8

Filename I:\Music\Monster Ballads Ultimate\Disc 2\08 - Cinderella - Nobody's Fool.wav

Peak level 100.0 %
Extraction speed 1.7 X
Track quality 99.9 %
Test CRC D32F2C97
Copy CRC D32F2C97
Accurately ripped (confidence 2) [0E34019A] (AR v1)
Copy OK

Track 9

Filename I:\Music\Monster Ballads Ultimate\Disc 2\09 - Nelson - Only Time Will Tell.wav

Peak level 100.0 %
Extraction speed 2.0 X
Track quality 100.0 %
Test CRC B49E94C8
Copy CRC B49E94C8
Accurately ripped (confidence 2) [12D32103] (AR v1)
Copy OK

Track 10

Filename I:\Music\Monster Ballads Ultimate\Disc 2\10 - Giant - I'll See You In My Dreams.wav

Peak level 100.0 %
Extraction speed 2.1 X
Track quality 100.0 %
Test CRC 0971DBC4
Copy CRC 0971DBC4
Accurately ripped (confidence 2) [C9703A1B] (AR v1)
Copy OK

Track 11

Filename I:\Music\Monster Ballads Ultimate\Disc 2\11 - Whitesnake - Here I Go Again.wav

Peak level 100.0 %
Extraction speed 2.2 X
Track quality 100.0 %
Test CRC 1ED6AB45
Copy CRC 1ED6AB45
Accurately ripped (confidence 2) [79956429] (AR v1)
Copy OK

Track 12

Filename I:\Music\Monster Ballads Ultimate\Disc 2\12 - L.A. Guns - The Ballad Of Jayne.wav

Peak level 100.0 %
Extraction speed 2.3 X
Track quality 100.0 %
Test CRC 6FF3A2EC
Copy CRC 6FF3A2EC
Accurately ripped (confidence 2) [7E90D7F8] (AR v1)
Copy OK

Track 13

Filename I:\Music\Monster Ballads Ultimate\Disc 2\13 - Styx - Show Me The Way.wav

Peak level 100.0 %
Extraction speed 2.3 X
Track quality 100.0 %
Test CRC D3664B1D
Copy CRC D3664B1D
Accurately ripped (confidence 2) [08D03D2B] (AR v1)
Copy OK


All tracks accurately ripped

No errors occurred

End of status report

–– CUETools DB Plugin V2.1.4

[CTDB TOCID: WuQYIcwyF8kP4z8MytY_fo8y0ZQ-] found
Submit result: WuQYIcwyF8kP4z8MytY_fo8y0ZQ- has been confirmed
Track | CTDB Status
1 | (2/2) Accurately ripped
2 | (2/2) Accurately ripped
3 | (2/2) Accurately ripped
4 | (2/2) Accurately ripped
5 | (2/2) Accurately ripped
6 | (2/2) Accurately ripped
7 | (2/2) Accurately ripped
8 | (2/2) Accurately ripped
9 | (2/2) Accurately ripped
10 | (2/2) Accurately ripped
11 | (2/2) Accurately ripped
12 | (2/2) Accurately ripped
13 | (2/2) Accurately ripped


==== Log checksum D8AA2DD0F0764C75A0F3BC8F79C8B00A59A12014CE221B2B94E8403626F8D762 ====


Exact Audio Copy V1.0 beta 3 from 29. August 2011

EAC extraction logfile from 22. January 2014, 21:08

Various / Monster Ballads Ultimate Disc 3

Used drive : HL-DT-STBD-RE WH14NS40 Adapter: 3 ID: 1

Read mode : Secure
Utilize accurate stream : Yes
Defeat audio cache : Yes
Make use of C2 pointers : No

Read offset correction : 6
Overread into Lead-In and Lead-Out : No
Fill up missing offset samples with silence : Yes
Delete leading and trailing silent blocks : No
Null samples used in CRC calculations : Yes
Used interface : Native Win32 interface for Win NT & 2000
Gap handling : Appended to previous track

Used output format : User Defined Encoder
Selected bitrate : 1024 kBit/s
Quality : High
Add ID3 tag : No
Command line compressor : C:\Program Files (x86)\Exact Audio Copy\Flac\flac.exe
Additional command line options : -8 -V -T "ARTIST=%artist%" -T "TITLE=%title%" -T "ALBUM=%albumtitle%" -T "DATE=%year%" -T "TRACKNUMBER=%tracknr%" -T "GENRE=%genre%" -T "PERFORMER=%albuminterpret%" -T "COMPOSER=%composer%" %haslyrics%–tag-from-file=LYRICS="%lyricsfile%"%haslyrics% -T "ALBUMARTIST=%albumartist%" -T "DISCNUMBER=%cdnumber%" -T "TOTALDISCS=%totalcds%" -T "TOTALTRACKS=%numtracks%" -T "COMMENT=%comment%" %source% -o %dest%


TOC of the extracted CD

Track | Start | Length | Start sector | End sector
––––––––––––––––––––––––––––-
1 | 0:00.00 | 4:19.60 | 0 | 19484
2 | 4:19.60 | 4:31.57 | 19485 | 39866
3 | 8:51.42 | 3:54.48 | 39867 | 57464
4 | 12:46.15 | 5:46.65 | 57465 | 83479
5 | 18:33.05 | 5:29.70 | 83480 | 108224
6 | 24:03.00 | 3:31.22 | 108225 | 124071
7 | 27:34.22 | 4:52.18 | 124072 | 145989
8 | 32:26.40 | 3:52.20 | 145990 | 163409
9 | 36:18.60 | 3:35.27 | 163410 | 179561
10 | 39:54.12 | 4:06.38 | 179562 | 198049
11 | 44:00.50 | 3:21.22 | 198050 | 213146
12 | 47:21.72 | 4:21.20 | 213147 | 232741


Track 1

Filename I:\Music\Monster Ballads Ultimate\Disc 3\01 - Poison - Every Rose Has Its Thorn.wav

Pre-gap length 0:00:02.00

Peak level 100.0 %
Extraction speed 3.8 X
Track quality 100.0 %
Test CRC 0D10748E
Copy CRC 0D10748E
Accurately ripped (confidence 1) [E3A4E184] (AR v1)
Copy OK

Track 2

Filename I:\Music\Monster Ballads Ultimate\Disc 3\02 - Slaughter - Fly To The Angels.wav

Peak level 100.0 %
Extraction speed 2.3 X
Track quality 100.0 %
Test CRC 762B87A5
Copy CRC 762B87A5
Accurately ripped (confidence 1) [7A7C725A] (AR v1)
Copy OK

Track 3

Filename I:\Music\Monster Ballads Ultimate\Disc 3\03 - Sheriff - When I'm With You.wav

Peak level 100.0 %
Extraction speed 1.4 X
Track quality 100.0 %
Test CRC E3A809DD
Copy CRC E3A809DD
Accurately ripped (confidence 1) [AC16F30F] (AR v1)
Copy OK

Track 4

Filename I:\Music\Monster Ballads Ultimate\Disc 3\04 - Queensryche - Silent Lucidity.wav

Peak level 100.0 %
Extraction speed 1.6 X
Track quality 100.0 %
Test CRC 89590995
Copy CRC 89590995
Accurately ripped (confidence 1) [1BF2247B] (AR v1)
Copy OK

Track 5

Filename I:\Music\Monster Ballads Ultimate\Disc 3\05 - Poison - Something To Believe In.wav

Peak level 100.0 %
Extraction speed 1.7 X
Track quality 100.0 %
Test CRC 6A1D1812
Copy CRC 6A1D1812
Accurately ripped (confidence 1) [E680790E] (AR v1)
Copy OK

Track 6

Filename I:\Music\Monster Ballads Ultimate\Disc 3\06 - Vixen - Cryin'.wav

Peak level 100.0 %
Extraction speed 1.7 X
Track quality 100.0 %
Test CRC DD7E6C1A
Copy CRC DD7E6C1A
Accurately ripped (confidence 1) [99EA118A] (AR v1)
Copy OK

Track 7

Filename I:\Music\Monster Ballads Ultimate\Disc 3\07 - Great White - The Angel Song.wav

Peak level 100.0 %
Extraction speed 1.9 X
Track quality 100.0 %
Test CRC 60A3E639
Copy CRC 60A3E639
Accurately ripped (confidence 1) [C6949B7F] (AR v1)
Copy OK

Track 8

Filename I:\Music\Monster Ballads Ultimate\Disc 3\08 - Alias - More Than Words Can Say.wav

Peak level 100.0 %
Extraction speed 1.9 X
Track quality 100.0 %
Test CRC 8439D849
Copy CRC 8439D849
Accurately ripped (confidence 1) [7FA9321E] (AR v1)
Copy OK

Track 9

Filename I:\Music\Monster Ballads Ultimate\Disc 3\09 - Poison - I Won't Forget You.wav

Peak level 100.0 %
Extraction speed 1.9 X
Track quality 100.0 %
Test CRC DA63262E
Copy CRC DA63262E
Accurately ripped (confidence 1) [885BDC90] (AR v1)
Copy OK

Track 10

Filename I:\Music\Monster Ballads Ultimate\Disc 3\10 - Stryper - Honestly.wav

Peak level 100.0 %
Extraction speed 2.0 X
Track quality 100.0 %
Test CRC 1875EF91
Copy CRC 1875EF91
Accurately ripped (confidence 1) [DE47FF4A] (AR v1)
Copy OK

Track 11

Filename I:\Music\Monster Ballads Ultimate\Disc 3\11 - Slaughter - Spend My Life.wav

Peak level 100.0 %
Extraction speed 2.0 X
Track quality 100.0 %
Test CRC 5C04248D
Copy CRC 5C04248D
Accurately ripped (confidence 1) [499AD871] (AR v1)
Copy OK

Track 12

Filename I:\Music\Monster Ballads Ultimate\Disc 3\12 - Vixen - Edge Of A Broken Heart.wav

Peak level 100.0 %
Extraction speed 1.9 X
Track quality 99.9 %
Test CRC A460A0FB
Copy CRC A460A0FB
Accurately ripped (confidence 1) [2CF1A43C] (AR v1)
Copy OK


All tracks accurately ripped

No errors occurred

End of status report

–– CUETools DB Plugin V2.1.4

[CTDB TOCID: CEn.F_Spb14GzwUfej5emLAkjgQ-] found
Submit result: CEn.F_Spb14GzwUfej5emLAkjgQ- has been confirmed
Track | CTDB Status
1 | (3/3) Accurately ripped
2 | (3/3) Accurately ripped
3 | (3/3) Accurately ripped
4 | (3/3) Accurately ripped
5 | (3/3) Accurately ripped
6 | (3/3) Accurately ripped
7 | (3/3) Accurately ripped
8 | (3/3) Accurately ripped
9 | (3/3) Accurately ripped
10 | (3/3) Accurately ripped
11 | (3/3) Accurately ripped
12 | (3/3) Accurately ripped


==== Log checksum 8F2121BE948A36524F071C76415B713D8D138D74A40E189A43F44C6B5537C4BE ====