Tags
Language
Tags

Motörhead - No Sleep 'Til Hammersmith (1981) [2021 4CD]

Posted By: JET 1
Motörhead - No Sleep 'Til Hammersmith (1981) [2021 4CD]

Motörhead - No Sleep 'Til Hammersmith (1981) [2021 4CD]
EAC Rip | FLAC (Tracks) +CUE, LOG | 2.29 GB | Scans
Genre: Rock, Hard Rock, Heavy Metal | Label: BMG Records | Catalog Number: BMGCAT476QCD

Motörhead in 1981 was a band of extremes; a flammable mix of non-stop celebration over their rising success and punishing graft, underscored by an inter-band powder-keg dynamic. Afterrecording Ace Of Spades, it had shot to number four in the UK; the killer breakthrough after Overkill and Bomber had done essential groundwork, late 1980’s Ace Up Your Sleeve UK tour was a triumphant lap of honour that spilled into the recording of No Sleep ‘Til Hammersmith. The album took its title from an inscription painted on one of the trucks, referencing the 32 gigs they were playing with only two days off. The track listing ended up featuring three tracks from Ace Of Spades, five from Overkill, Bomber’stitle track and two from their self-titled debut. Originally released on 27th June 1981, Lemmy is quoted as saying of it “I knew it’d be the live one that went best, because we’re really a live band. You can’t listen to a record and find out what we’re about.You’ve got to see us.” Upon release No Sleep ‘Til Hammersmith went straight to number one, their first and only in the UK and is still the most necessary live album of all time. This 4CD box set of the No Sleep ‘Til Hammersmith album contains brand new remaster created from the original tapes. Includes three CD live albums of a newly unearthed, previouslyunreleased concerts from the Short Sharp Pain In The Neck tour.

Exact Audio Copy V1.6 from 23. October 2020

EAC extraction logfile from 24. July 2021, 16:37

Motörhead / No Sleep 'til Hammersmith (40th Anniversary Edition)

Used drive : PLEXTOR DVDR PX-L890SA Adapter: 1 ID: 0

Read mode : Secure
Utilize accurate stream : Yes
Defeat audio cache : Yes
Make use of C2 pointers : No

Read offset correction : 6
Overread into Lead-In and Lead-Out : No
Fill up missing offset samples with silence : Yes
Delete leading and trailing silent blocks : No
Null samples used in CRC calculations : Yes
Used interface : Native Win32 interface for Win NT & 2000
Gap handling : Appended to previous track

Used output format : User Defined Encoder
Selected bitrate : 1024 kBit/s
Quality : High
Add ID3 tag : No
Command line compressor : C:\Program Files\Exact Audio Copy\Flac\flac.exe
Additional command line options : -0 -V -T "ARTIST=%artist%" -T "TITLE=%title%" -T "ALBUM=%albumtitle%" -T "DATE=%year%" -T "TRACKNUMBER=%tracknr%" -T "TOTALTRACKS=%numtracks%" -T "GENRE=%genre%" -T "COMMENT=Naftamusic Release!" %source%


TOC of the extracted CD

Track | Start | Length | Start sector | End sector
––––––––––––––––––––––––––––-
1 | 0:00.00 | 2:58.28 | 0 | 13377
2 | 2:58.28 | 2:52.20 | 13378 | 26297
3 | 5:50.48 | 3:24.34 | 26298 | 41631
4 | 9:15.07 | 3:04.36 | 41632 | 55467
5 | 12:19.43 | 3:52.55 | 55468 | 72922
6 | 16:12.23 | 2:46.70 | 72923 | 85442
7 | 18:59.18 | 4:39.52 | 85443 | 106419
8 | 23:38.70 | 4:03.16 | 106420 | 124660
9 | 27:42.11 | 4:43.03 | 124661 | 145888
10 | 32:25.14 | 3:24.69 | 145889 | 161257
11 | 35:50.08 | 4:41.68 | 161258 | 182400
12 | 40:32.01 | 2:52.67 | 182401 | 195367
13 | 43:24.68 | 2:42.55 | 195368 | 207572
14 | 46:07.48 | 2:39.26 | 207573 | 219523
15 | 48:46.74 | 6:29.00 | 219524 | 248698
16 | 55:15.74 | 11:42.01 | 248699 | 301349


Track 1

Filename D:\Nafta Releases\Motörhead - No Sleep 'Til Hammersmith (40th Anniversary) (2021) [FLAC] - Naftamusic\CD 1\01 - Ace Of Spades.wav

Pre-gap length 0:00:02.00

Peak level 98.2 %
Extraction speed 3.2 X
Track quality 100.0 %
Test CRC 3A765CE4
Copy CRC 3A765CE4
Accurately ripped (confidence 5) [2E05AEEC] (AR v2)
Copy OK

Track 2

Filename D:\Nafta Releases\Motörhead - No Sleep 'Til Hammersmith (40th Anniversary) (2021) [FLAC] - Naftamusic\CD 1\02 - Stay Clean.wav

Peak level 97.6 %
Extraction speed 3.4 X
Track quality 100.0 %
Test CRC 73C7066C
Copy CRC 73C7066C
Accurately ripped (confidence 5) [56EF5627] (AR v2)
Copy OK

Track 3

Filename D:\Nafta Releases\Motörhead - No Sleep 'Til Hammersmith (40th Anniversary) (2021) [FLAC] - Naftamusic\CD 1\03 - Metropolis.wav

Peak level 97.7 %
Extraction speed 3.8 X
Track quality 100.0 %
Test CRC 3BED589C
Copy CRC 3BED589C
Accurately ripped (confidence 5) [305F052F] (AR v2)
Copy OK

Track 4

Filename D:\Nafta Releases\Motörhead - No Sleep 'Til Hammersmith (40th Anniversary) (2021) [FLAC] - Naftamusic\CD 1\04 - The Hammer.wav

Peak level 97.6 %
Extraction speed 4.0 X
Track quality 100.0 %
Test CRC FA3276CF
Copy CRC FA3276CF
Accurately ripped (confidence 5) [3FAEFE04] (AR v2)
Copy OK

Track 5

Filename D:\Nafta Releases\Motörhead - No Sleep 'Til Hammersmith (40th Anniversary) (2021) [FLAC] - Naftamusic\CD 1\05 - Iron Horse - Born To Lose.wav

Peak level 97.7 %
Extraction speed 3.5 X
Track quality 99.9 %
Test CRC F2BC649E
Copy CRC F2BC649E
Accurately ripped (confidence 5) [7C84319B] (AR v2)
Copy OK

Track 6

Filename D:\Nafta Releases\Motörhead - No Sleep 'Til Hammersmith (40th Anniversary) (2021) [FLAC] - Naftamusic\CD 1\06 - No Class.wav

Peak level 97.7 %
Extraction speed 4.3 X
Track quality 100.0 %
Test CRC 073F0825
Copy CRC 073F0825
Accurately ripped (confidence 5) [AC263120] (AR v2)
Copy OK

Track 7

Filename D:\Nafta Releases\Motörhead - No Sleep 'Til Hammersmith (40th Anniversary) (2021) [FLAC] - Naftamusic\CD 1\07 - Overkill.wav

Peak level 97.7 %
Extraction speed 5.0 X
Track quality 100.0 %
Test CRC 2F25DEA2
Copy CRC 2F25DEA2
Accurately ripped (confidence 5) [EA6D524D] (AR v2)
Copy OK

Track 8

Filename D:\Nafta Releases\Motörhead - No Sleep 'Til Hammersmith (40th Anniversary) (2021) [FLAC] - Naftamusic\CD 1\08 - (We Are) The Road Crew.wav

Peak level 97.7 %
Extraction speed 5.2 X
Track quality 100.0 %
Test CRC 2ED39540
Copy CRC 2ED39540
Accurately ripped (confidence 5) [AA745A46] (AR v2)
Copy OK

Track 9

Filename D:\Nafta Releases\Motörhead - No Sleep 'Til Hammersmith (40th Anniversary) (2021) [FLAC] - Naftamusic\CD 1\09 - Capricorn.wav

Peak level 97.7 %
Extraction speed 5.6 X
Track quality 100.0 %
Test CRC 7EF67661
Copy CRC 7EF67661
Accurately ripped (confidence 5) [2CE62ED8] (AR v2)
Copy OK

Track 10

Filename D:\Nafta Releases\Motörhead - No Sleep 'Til Hammersmith (40th Anniversary) (2021) [FLAC] - Naftamusic\CD 1\10 - Bomber.wav

Peak level 97.6 %
Extraction speed 5.6 X
Track quality 100.0 %
Test CRC 5A5D91F1
Copy CRC 5A5D91F1
Accurately ripped (confidence 5) [02559946] (AR v2)
Copy OK

Track 11

Filename D:\Nafta Releases\Motörhead - No Sleep 'Til Hammersmith (40th Anniversary) (2021) [FLAC] - Naftamusic\CD 1\11 - Motörhead.wav

Peak level 97.7 %
Extraction speed 6.0 X
Track quality 100.0 %
Test CRC AA2B983B
Copy CRC AA2B983B
Accurately ripped (confidence 5) [65B5D73D] (AR v2)
Copy OK

Track 12

Filename D:\Nafta Releases\Motörhead - No Sleep 'Til Hammersmith (40th Anniversary) (2021) [FLAC] - Naftamusic\CD 1\12 - Over The Top.wav

Peak level 98.2 %
Extraction speed 5.8 X
Track quality 100.0 %
Test CRC 4C5748AA
Copy CRC 4C5748AA
Accurately ripped (confidence 5) [7DF2ED8A] (AR v2)
Copy OK

Track 13

Filename D:\Nafta Releases\Motörhead - No Sleep 'Til Hammersmith (40th Anniversary) (2021) [FLAC] - Naftamusic\CD 1\13 - Train Kept A-Rollin'.wav

Pre-gap length 0:00:00.31

Peak level 98.5 %
Extraction speed 5.8 X
Track quality 100.0 %
Test CRC F027E641
Copy CRC F027E641
Accurately ripped (confidence 5) [C27DAE33] (AR v2)
Copy OK

Track 14

Filename D:\Nafta Releases\Motörhead - No Sleep 'Til Hammersmith (40th Anniversary) (2021) [FLAC] - Naftamusic\CD 1\14 - Stay Clean.wav

Peak level 97.1 %
Extraction speed 4.4 X
Track quality 99.9 %
Test CRC F2B4DC01
Copy CRC F2B4DC01
Accurately ripped (confidence 5) [A1E5B30F] (AR v2)
Copy OK

Track 15

Filename D:\Nafta Releases\Motörhead - No Sleep 'Til Hammersmith (40th Anniversary) (2021) [FLAC] - Naftamusic\CD 1\15 - Limb From Limb.wav

Peak level 97.0 %
Extraction speed 6.9 X
Track quality 100.0 %
Test CRC 47C15E56
Copy CRC 47C15E56
Accurately ripped (confidence 5) [F714F0D9] (AR v2)
Copy OK

Track 16

Filename D:\Nafta Releases\Motörhead - No Sleep 'Til Hammersmith (40th Anniversary) (2021) [FLAC] - Naftamusic\CD 1\16 - Iron Horse.wav

Peak level 97.1 %
Extraction speed 7.6 X
Track quality 100.0 %
Test CRC 3B529D3C
Copy CRC 3B529D3C
Accurately ripped (confidence 5) [0D6C2183] (AR v2)
Copy OK


All tracks accurately ripped

No errors occurred

End of status report

==== Log checksum 7EF426765732279E84434FFD82F238DE9BA3D35C297216F71F7F801065E97247 ====

Exact Audio Copy V1.6 from 23. October 2020

EAC extraction logfile from 24. July 2021, 17:41

Motörhead / No Sleep 'til Hammersmith (40th Anniversary Edition)

Used drive : PLEXTOR DVDR PX-L890SA Adapter: 1 ID: 0

Read mode : Secure
Utilize accurate stream : Yes
Defeat audio cache : Yes
Make use of C2 pointers : No

Read offset correction : 6
Overread into Lead-In and Lead-Out : No
Fill up missing offset samples with silence : Yes
Delete leading and trailing silent blocks : No
Null samples used in CRC calculations : Yes
Used interface : Native Win32 interface for Win NT & 2000
Gap handling : Appended to previous track

Used output format : User Defined Encoder
Selected bitrate : 1024 kBit/s
Quality : High
Add ID3 tag : No
Command line compressor : C:\Program Files\Exact Audio Copy\Flac\flac.exe
Additional command line options : -0 -V -T "ARTIST=%artist%" -T "TITLE=%title%" -T "ALBUM=%albumtitle%" -T "DATE=%year%" -T "TRACKNUMBER=%tracknr%" -T "TOTALTRACKS=%numtracks%" -T "GENRE=%genre%" -T "COMMENT=Naftamusic Release!" %source%


TOC of the extracted CD

Track | Start | Length | Start sector | End sector
––––––––––––––––––––––––––––-
1 | 0:00.00 | 2:58.20 | 0 | 13369
2 | 2:58.20 | 2:42.34 | 13370 | 25553
3 | 5:40.54 | 3:06.43 | 25554 | 39546
4 | 8:47.22 | 3:42.70 | 39547 | 56266
5 | 12:30.17 | 3:14.59 | 56267 | 70875
6 | 15:45.01 | 3:27.26 | 70876 | 86426
7 | 19:12.27 | 4:07.54 | 86427 | 105005
8 | 23:20.06 | 2:51.05 | 105006 | 117835
9 | 26:11.11 | 5:07.11 | 117836 | 140871
10 | 31:18.22 | 3:18.63 | 140872 | 155784
11 | 34:37.10 | 4:46.33 | 155785 | 177267
12 | 39:23.43 | 3:58.34 | 177268 | 195151
13 | 43:22.02 | 2:51.23 | 195152 | 207999
14 | 46:13.25 | 5:13.03 | 208000 | 231477
15 | 51:26.28 | 1:46.04 | 231478 | 239431
16 | 53:12.32 | 4:32.46 | 239432 | 259877
17 | 57:45.03 | 6:31.69 | 259878 | 289271
18 | 64:16.72 | 4:00.08 | 289272 | 307279
19 | 68:17.05 | 5:29.52 | 307280 | 332006


Track 1

Filename D:\Nafta Releases\Motörhead - No Sleep 'Til Hammersmith (40th Anniversary) (2021) [FLAC] - Naftamusic\CD 2\01 - Ace Of Spades.wav

Pre-gap length 0:00:02.00

Peak level 99.0 %
Extraction speed 1.2 X
Track quality 99.9 %
Test CRC 92B32408
Copy CRC 92B32408
Accurately ripped (confidence 3) [57D74A47] (AR v2)
Copy OK

Track 2

Filename D:\Nafta Releases\Motörhead - No Sleep 'Til Hammersmith (40th Anniversary) (2021) [FLAC] - Naftamusic\CD 2\02 - Stay Clean.wav

Peak level 99.0 %
Extraction speed 1.9 X
Track quality 100.0 %
Test CRC 23725731
Copy CRC 23725731
Accurately ripped (confidence 3) [53744C95] (AR v2)
Copy OK

Track 3

Filename D:\Nafta Releases\Motörhead - No Sleep 'Til Hammersmith (40th Anniversary) (2021) [FLAC] - Naftamusic\CD 2\03 - Over The Top.wav

Peak level 99.0 %
Extraction speed 1.4 X
Track quality 99.9 %
Test CRC 67617FB5
Copy CRC 67617FB5
Accurately ripped (confidence 3) [F1EF18CF] (AR v2)
Copy OK

Track 4

Filename D:\Nafta Releases\Motörhead - No Sleep 'Til Hammersmith (40th Anniversary) (2021) [FLAC] - Naftamusic\CD 2\04 - Metropolis.wav

Peak level 99.0 %
Extraction speed 2.3 X
Track quality 100.0 %
Test CRC 9B47998C
Copy CRC 9B47998C
Accurately ripped (confidence 3) [F6497645] (AR v2)
Copy OK

Track 5

Filename D:\Nafta Releases\Motörhead - No Sleep 'Til Hammersmith (40th Anniversary) (2021) [FLAC] - Naftamusic\CD 2\05 - Shoot You In The Back.wav

Peak level 99.0 %
Extraction speed 2.4 X
Track quality 100.0 %
Test CRC 019D7D8B
Copy CRC 019D7D8B
Accurately ripped (confidence 3) [7B5C65B9] (AR v2)
Copy OK

Track 6

Filename D:\Nafta Releases\Motörhead - No Sleep 'Til Hammersmith (40th Anniversary) (2021) [FLAC] - Naftamusic\CD 2\06 - The Hammer.wav

Peak level 99.0 %
Extraction speed 2.5 X
Track quality 100.0 %
Test CRC 33F8D8C2
Copy CRC 33F8D8C2
Accurately ripped (confidence 3) [53AC00DC] (AR v2)
Copy OK

Track 7

Filename D:\Nafta Releases\Motörhead - No Sleep 'Til Hammersmith (40th Anniversary) (2021) [FLAC] - Naftamusic\CD 2\07 - Jailbait.wav

Peak level 99.0 %
Extraction speed 2.7 X
Track quality 100.0 %
Test CRC 24BA360F
Copy CRC 24BA360F
Accurately ripped (confidence 3) [3F0CF364] (AR v2)
Copy OK

Track 8

Filename D:\Nafta Releases\Motörhead - No Sleep 'Til Hammersmith (40th Anniversary) (2021) [FLAC] - Naftamusic\CD 2\08 - Leaving Here.wav

Peak level 99.0 %
Extraction speed 2.7 X
Track quality 100.0 %
Test CRC 3BC41A09
Copy CRC 3BC41A09
Accurately ripped (confidence 3) [579CAD5C] (AR v2)
Copy OK

Track 9

Filename D:\Nafta Releases\Motörhead - No Sleep 'Til Hammersmith (40th Anniversary) (2021) [FLAC] - Naftamusic\CD 2\09 - Iron Horse - Born To Lose.wav

Peak level 99.0 %
Extraction speed 3.1 X
Track quality 100.0 %
Test CRC 6D672A7C
Copy CRC 6D672A7C
Accurately ripped (confidence 3) [6EE14D00] (AR v2)
Copy OK

Track 10

Filename D:\Nafta Releases\Motörhead - No Sleep 'Til Hammersmith (40th Anniversary) (2021) [FLAC] - Naftamusic\CD 2\10 - Fire Fire.wav

Peak level 99.0 %
Extraction speed 2.1 X
Track quality 99.9 %
Test CRC 61E439EE
Copy CRC 61E439EE
Accurately ripped (confidence 3) [A9C6E07C] (AR v2)
Copy OK

Track 11

Filename D:\Nafta Releases\Motörhead - No Sleep 'Til Hammersmith (40th Anniversary) (2021) [FLAC] - Naftamusic\CD 2\11 - Capricorn.wav

Peak level 99.0 %
Extraction speed 3.3 X
Track quality 100.0 %
Test CRC 51E6E03C
Copy CRC 51E6E03C
Accurately ripped (confidence 3) [C7EE25CA] (AR v2)
Copy OK

Track 12

Filename D:\Nafta Releases\Motörhead - No Sleep 'Til Hammersmith (40th Anniversary) (2021) [FLAC] - Naftamusic\CD 2\12 - Too Late, Too Late.wav

Peak level 99.0 %
Extraction speed 3.4 X
Track quality 100.0 %
Test CRC 1713D7CE
Copy CRC 1713D7CE
Accurately ripped (confidence 3) [09BB2CC0] (AR v2)
Copy OK

Track 13

Filename D:\Nafta Releases\Motörhead - No Sleep 'Til Hammersmith (40th Anniversary) (2021) [FLAC] - Naftamusic\CD 2\13 - No Class.wav

Peak level 99.0 %
Extraction speed 2.1 X
Track quality 99.9 %
Test CRC 68EE3BE2
Copy CRC 68EE3BE2
Accurately ripped (confidence 3) [B2820888] (AR v2)
Copy OK

Track 14

Filename D:\Nafta Releases\Motörhead - No Sleep 'Til Hammersmith (40th Anniversary) (2021) [FLAC] - Naftamusic\CD 2\14 - (We Are) The Road Crew.wav

Peak level 98.9 %
Extraction speed 2.8 X
Track quality 99.9 %
Test CRC F37B4774
Copy CRC F37B4774
Accurately ripped (confidence 3) [76C517F0] (AR v2)
Copy OK

Track 15

Filename D:\Nafta Releases\Motörhead - No Sleep 'Til Hammersmith (40th Anniversary) (2021) [FLAC] - Naftamusic\CD 2\15 - Bite The Bullet.wav

Peak level 98.9 %
Extraction speed 3.1 X
Track quality 100.0 %
Test CRC 371206B8
Copy CRC 371206B8
Accurately ripped (confidence 3) [92260FAE] (AR v2)
Copy OK

Track 16

Filename D:\Nafta Releases\Motörhead - No Sleep 'Til Hammersmith (40th Anniversary) (2021) [FLAC] - Naftamusic\CD 2\16 - The Chase Is Better Than The Catch.wav

Peak level 99.0 %
Extraction speed 3.7 X
Track quality 100.0 %
Test CRC 0335C06F
Copy CRC 0335C06F
Accurately ripped (confidence 3) [53D27101] (AR v2)
Copy OK

Track 17

Filename D:\Nafta Releases\Motörhead - No Sleep 'Til Hammersmith (40th Anniversary) (2021) [FLAC] - Naftamusic\CD 2\17 - Overkill.wav

Peak level 99.0 %
Extraction speed 4.1 X
Track quality 100.0 %
Test CRC EE29D550
Copy CRC EE29D550
Accurately ripped (confidence 3) [BAEEE177] (AR v2)
Copy OK

Track 18

Filename D:\Nafta Releases\Motörhead - No Sleep 'Til Hammersmith (40th Anniversary) (2021) [FLAC] - Naftamusic\CD 2\18 - Bomber.wav

Peak level 99.0 %
Extraction speed 4.0 X
Track quality 100.0 %
Test CRC 1136F9EF
Copy CRC 1136F9EF
Accurately ripped (confidence 3) [14496DF7] (AR v2)
Copy OK

Track 19

Filename D:\Nafta Releases\Motörhead - No Sleep 'Til Hammersmith (40th Anniversary) (2021) [FLAC] - Naftamusic\CD 2\19 - Motörhead.wav

Peak level 99.0 %
Extraction speed 3.3 X
Track quality 99.9 %
Test CRC F3B334DC
Copy CRC F3B334DC
Accurately ripped (confidence 3) [D0EE2956] (AR v2)
Copy OK


All tracks accurately ripped

No errors occurred

End of status report

==== Log checksum 66256479B972A6000BB03BA6A065D017179B86641224BA0157D32A0A1842E9D5 ====

Exact Audio Copy V1.6 from 23. October 2020

EAC extraction logfile from 24. July 2021, 18:39

Motörhead / No Sleep 'til Hammersmith (40th Anniversary Edition)

Used drive : PLEXTOR DVDR PX-L890SA Adapter: 1 ID: 0

Read mode : Secure
Utilize accurate stream : Yes
Defeat audio cache : Yes
Make use of C2 pointers : No

Read offset correction : 6
Overread into Lead-In and Lead-Out : No
Fill up missing offset samples with silence : Yes
Delete leading and trailing silent blocks : No
Null samples used in CRC calculations : Yes
Used interface : Native Win32 interface for Win NT & 2000
Gap handling : Appended to previous track

Used output format : User Defined Encoder
Selected bitrate : 1024 kBit/s
Quality : High
Add ID3 tag : No
Command line compressor : C:\Program Files\Exact Audio Copy\Flac\flac.exe
Additional command line options : -0 -V -T "ARTIST=%artist%" -T "TITLE=%title%" -T "ALBUM=%albumtitle%" -T "DATE=%year%" -T "TRACKNUMBER=%tracknr%" -T "TOTALTRACKS=%numtracks%" -T "GENRE=%genre%" -T "COMMENT=Naftamusic Release!" %source%


TOC of the extracted CD

Track | Start | Length | Start sector | End sector
––––––––––––––––––––––––––––-
1 | 0:00.00 | 2:51.63 | 0 | 12887
2 | 2:51.63 | 2:53.42 | 12888 | 25904
3 | 5:45.30 | 3:43.60 | 25905 | 42689
4 | 9:29.15 | 3:31.70 | 42690 | 58584
5 | 13:01.10 | 3:06.05 | 58585 | 72539
6 | 16:07.15 | 3:20.24 | 72540 | 87563
7 | 19:27.39 | 3:33.18 | 87564 | 103556
8 | 23:00.57 | 3:09.39 | 103557 | 117770
9 | 26:10.21 | 3:47.23 | 117771 | 134818
10 | 29:57.44 | 5:02.17 | 134819 | 157485
11 | 34:59.61 | 3:46.25 | 157486 | 174460
12 | 38:46.11 | 2:53.27 | 174461 | 187462
13 | 41:39.38 | 5:56.72 | 187463 | 214234
14 | 47:36.35 | 1:38.46 | 214235 | 221630
15 | 49:15.06 | 6:00.54 | 221631 | 248684
16 | 55:15.60 | 5:44.33 | 248685 | 274517
17 | 61:00.18 | 5:19.40 | 274518 | 298482
18 | 66:19.58 | 5:54.20 | 298483 | 325052


Track 1

Filename D:\Nafta Releases\Motörhead - No Sleep 'Til Hammersmith (40th Anniversary) (2021) [FLAC] - Naftamusic\CD 3\01 - Ace Of Spades.wav

Pre-gap length 0:00:02.00

Peak level 99.0 %
Extraction speed 1.7 X
Track quality 100.0 %
Test CRC AD4CEB8D
Copy CRC AD4CEB8D
Accurately ripped (confidence 2) [60117126] (AR v2)
Copy OK

Track 2

Filename D:\Nafta Releases\Motörhead - No Sleep 'Til Hammersmith (40th Anniversary) (2021) [FLAC] - Naftamusic\CD 3\02 - Stay Clean.wav

Peak level 99.0 %
Extraction speed 1.9 X
Track quality 100.0 %
Test CRC 6956076E
Copy CRC 6956076E
Accurately ripped (confidence 2) [132F6C9B] (AR v2)
Copy OK

Track 3

Filename D:\Nafta Releases\Motörhead - No Sleep 'Til Hammersmith (40th Anniversary) (2021) [FLAC] - Naftamusic\CD 3\03 - Over The Top.wav

Peak level 99.0 %
Extraction speed 2.1 X
Track quality 100.0 %
Test CRC 14B7A272
Copy CRC 14B7A272
Accurately ripped (confidence 2) [371D2572] (AR v2)
Copy OK

Track 4

Filename D:\Nafta Releases\Motörhead - No Sleep 'Til Hammersmith (40th Anniversary) (2021) [FLAC] - Naftamusic\CD 3\04 - Metropolis.wav

Peak level 99.0 %
Extraction speed 2.3 X
Track quality 100.0 %
Test CRC C1F3C4A3
Copy CRC C1F3C4A3
Accurately ripped (confidence 2) [AB9D55C4] (AR v2)
Copy OK

Track 5

Filename D:\Nafta Releases\Motörhead - No Sleep 'Til Hammersmith (40th Anniversary) (2021) [FLAC] - Naftamusic\CD 3\05 - Shoot You In The Back.wav

Peak level 99.0 %
Extraction speed 2.3 X
Track quality 100.0 %
Test CRC 62D0573E
Copy CRC 62D0573E
Accurately ripped (confidence 2) [0CD18E0D] (AR v2)
Copy OK

Track 6

Filename D:\Nafta Releases\Motörhead - No Sleep 'Til Hammersmith (40th Anniversary) (2021) [FLAC] - Naftamusic\CD 3\06 - The Hammer.wav

Peak level 99.0 %
Extraction speed 2.4 X
Track quality 100.0 %
Test CRC A9EA16BF
Copy CRC A9EA16BF
Accurately ripped (confidence 2) [5A7316D9] (AR v2)
Copy OK

Track 7

Filename D:\Nafta Releases\Motörhead - No Sleep 'Til Hammersmith (40th Anniversary) (2021) [FLAC] - Naftamusic\CD 3\07 - Jailbait.wav

Peak level 99.0 %
Extraction speed 2.6 X
Track quality 100.0 %
Test CRC 372FEA1A
Copy CRC 372FEA1A
Accurately ripped (confidence 2) [77C1484C] (AR v2)
Copy OK

Track 8

Filename D:\Nafta Releases\Motörhead - No Sleep 'Til Hammersmith (40th Anniversary) (2021) [FLAC] - Naftamusic\CD 3\08 - Leaving Here.wav

Peak level 99.0 %
Extraction speed 2.7 X
Track quality 100.0 %
Test CRC E39054E6
Copy CRC E39054E6
Accurately ripped (confidence 2) [D5EA173B] (AR v2)
Copy OK

Track 9

Filename D:\Nafta Releases\Motörhead - No Sleep 'Til Hammersmith (40th Anniversary) (2021) [FLAC] - Naftamusic\CD 3\09 - Fire Fire.wav

Peak level 99.0 %
Extraction speed 2.9 X
Track quality 100.0 %
Test CRC EF876A76
Copy CRC EF876A76
Accurately ripped (confidence 2) [E50624EC] (AR v2)
Copy OK

Track 10

Filename D:\Nafta Releases\Motörhead - No Sleep 'Til Hammersmith (40th Anniversary) (2021) [FLAC] - Naftamusic\CD 3\10 - Capricorn.wav

Peak level 99.0 %
Extraction speed 3.2 X
Track quality 100.0 %
Test CRC 5415C648
Copy CRC 5415C648
Accurately ripped (confidence 1) [23CF268F] (AR v2)
Copy OK

Track 11

Filename D:\Nafta Releases\Motörhead - No Sleep 'Til Hammersmith (40th Anniversary) (2021) [FLAC] - Naftamusic\CD 3\11 - Too Late, Too Late.wav

Peak level 99.0 %
Extraction speed 3.1 X
Track quality 100.0 %
Test CRC BF52E242
Copy CRC BF52E242
Accurately ripped (confidence 2) [91067597] (AR v2)
Copy OK

Track 12

Filename D:\Nafta Releases\Motörhead - No Sleep 'Til Hammersmith (40th Anniversary) (2021) [FLAC] - Naftamusic\CD 3\12 - No Class.wav

Peak level 99.0 %
Extraction speed 3.1 X
Track quality 100.0 %
Test CRC AF7C590B
Copy CRC AF7C590B
Accurately ripped (confidence 2) [7D6169CA] (AR v2)
Copy OK

Track 13

Filename D:\Nafta Releases\Motörhead - No Sleep 'Til Hammersmith (40th Anniversary) (2021) [FLAC] - Naftamusic\CD 3\13 - (We Are) The Road Crew.wav

Peak level 99.0 %
Extraction speed 3.6 X
Track quality 100.0 %
Test CRC 6D412E8F
Copy CRC 6D412E8F
Accurately ripped (confidence 2) [00EA6678] (AR v2)
Copy OK

Track 14

Filename D:\Nafta Releases\Motörhead - No Sleep 'Til Hammersmith (40th Anniversary) (2021) [FLAC] - Naftamusic\CD 3\14 - Bite The Bullet.wav

Peak level 98.9 %
Extraction speed 1.6 X
Track quality 99.8 %
Test CRC 776039B6
Copy CRC 776039B6
Accurately ripped (confidence 2) [F27A12CC] (AR v2)
Copy OK

Track 15

Filename D:\Nafta Releases\Motörhead - No Sleep 'Til Hammersmith (40th Anniversary) (2021) [FLAC] - Naftamusic\CD 3\15 - The Chase Is Better Than The Catch.wav

Peak level 99.0 %
Extraction speed 3.8 X
Track quality 100.0 %
Test CRC 4D5BC3F2
Copy CRC 4D5BC3F2
Accurately ripped (confidence 2) [74564918] (AR v2)
Copy OK

Track 16

Filename D:\Nafta Releases\Motörhead - No Sleep 'Til Hammersmith (40th Anniversary) (2021) [FLAC] - Naftamusic\CD 3\16 - Overkill.wav

Peak level 99.0 %
Extraction speed 3.9 X
Track quality 100.0 %
Test CRC 11C7CF4B
Copy CRC 11C7CF4B
Accurately ripped (confidence 2) [9285DE90] (AR v2)
Copy OK

Track 17

Filename D:\Nafta Releases\Motörhead - No Sleep 'Til Hammersmith (40th Anniversary) (2021) [FLAC] - Naftamusic\CD 3\17 - Bomber.wav

Peak level 99.0 %
Extraction speed 4.0 X
Track quality 100.0 %
Test CRC E3D38EF3
Copy CRC E3D38EF3
Accurately ripped (confidence 2) [CE28BD1E] (AR v2)
Copy OK

Track 18

Filename D:\Nafta Releases\Motörhead - No Sleep 'Til Hammersmith (40th Anniversary) (2021) [FLAC] - Naftamusic\CD 3\18 - Motörhead.wav

Peak level 99.0 %
Extraction speed 3.3 X
Track quality 99.9 %
Test CRC 4C8B8919
Copy CRC 4C8B8919
Accurately ripped (confidence 2) [D3BA6755] (AR v2)
Copy OK


All tracks accurately ripped

No errors occurred

End of status report

==== Log checksum E3F443908945BD0357C2226A749DAED0504DA7DD6CE3655BD81785C45691DA11 ====

Exact Audio Copy V1.6 from 23. October 2020

EAC extraction logfile from 24. July 2021, 19:37

Motörhead / No Sleep 'til Hammersmith (40th Anniversary Edition)

Used drive : PLEXTOR DVDR PX-L890SA Adapter: 1 ID: 0

Read mode : Secure
Utilize accurate stream : Yes
Defeat audio cache : Yes
Make use of C2 pointers : No

Read offset correction : 6
Overread into Lead-In and Lead-Out : No
Fill up missing offset samples with silence : Yes
Delete leading and trailing silent blocks : No
Null samples used in CRC calculations : Yes
Used interface : Native Win32 interface for Win NT & 2000
Gap handling : Appended to previous track

Used output format : User Defined Encoder
Selected bitrate : 1024 kBit/s
Quality : High
Add ID3 tag : No
Command line compressor : C:\Program Files\Exact Audio Copy\Flac\flac.exe
Additional command line options : -0 -V -T "ARTIST=%artist%" -T "TITLE=%title%" -T "ALBUM=%albumtitle%" -T "DATE=%year%" -T "TRACKNUMBER=%tracknr%" -T "TOTALTRACKS=%numtracks%" -T "GENRE=%genre%" -T "COMMENT=Naftamusic Release!" %source%


TOC of the extracted CD

Track | Start | Length | Start sector | End sector
––––––––––––––––––––––––––––-
1 | 0:00.00 | 3:01.49 | 0 | 13623
2 | 3:01.49 | 2:38.18 | 13624 | 25491
3 | 5:39.67 | 3:51.25 | 25492 | 42841
4 | 9:31.17 | 4:14.35 | 42842 | 61926
5 | 13:45.52 | 2:57.54 | 61927 | 75255
6 | 16:43.31 | 3:34.62 | 75256 | 91367
7 | 20:18.18 | 4:31.28 | 91368 | 111720
8 | 24:49.46 | 2:55.28 | 111721 | 124873
9 | 27:44.74 | 4:09.02 | 124874 | 143550
10 | 31:54.01 | 4:32.23 | 143551 | 163973
11 | 36:26.24 | 3:25.03 | 163974 | 179351
12 | 39:51.27 | 3:25.64 | 179352 | 194790
13 | 43:17.16 | 6:12.61 | 194791 | 222751
14 | 49:30.02 | 2:01.63 | 222752 | 231889
15 | 51:31.65 | 4:29.18 | 231890 | 252082
16 | 56:01.08 | 8:11.32 | 252083 | 288939
17 | 64:12.40 | 5:01.20 | 288940 | 311534
18 | 69:13.60 | 5:25.41 | 311535 | 335950


Track 1

Filename D:\Nafta Releases\Motörhead - No Sleep 'Til Hammersmith (40th Anniversary) (2021) [FLAC] - Naftamusic\CD 4\01 - Ace Of Spades.wav

Pre-gap length 0:00:02.00

Peak level 99.0 %
Extraction speed 3.4 X
Track quality 100.0 %
Test CRC A97375A3
Copy CRC A97375A3
Accurately ripped (confidence 2) [FB40B951] (AR v2)
Copy OK

Track 2

Filename D:\Nafta Releases\Motörhead - No Sleep 'Til Hammersmith (40th Anniversary) (2021) [FLAC] - Naftamusic\CD 4\02 - Stay Clean.wav

Peak level 99.0 %
Extraction speed 3.6 X
Track quality 100.0 %
Test CRC 162E186F
Copy CRC 162E186F
Accurately ripped (confidence 2) [54D09D3A] (AR v2)
Copy OK

Track 3

Filename D:\Nafta Releases\Motörhead - No Sleep 'Til Hammersmith (40th Anniversary) (2021) [FLAC] - Naftamusic\CD 4\03 - Over The Top.wav

Peak level 99.0 %
Extraction speed 4.1 X
Track quality 100.0 %
Test CRC 5B0F2C9B
Copy CRC 5B0F2C9B
Accurately ripped (confidence 2) [A9391BF2] (AR v2)
Copy OK

Track 4

Filename D:\Nafta Releases\Motörhead - No Sleep 'Til Hammersmith (40th Anniversary) (2021) [FLAC] - Naftamusic\CD 4\04 - Metropolis.wav

Peak level 99.0 %
Extraction speed 4.5 X
Track quality 100.0 %
Test CRC FFB99881
Copy CRC FFB99881
Accurately ripped (confidence 2) [FAC820C6] (AR v2)
Copy OK

Track 5

Filename D:\Nafta Releases\Motörhead - No Sleep 'Til Hammersmith (40th Anniversary) (2021) [FLAC] - Naftamusic\CD 4\05 - Shoot You In The Back.wav

Peak level 99.0 %
Extraction speed 4.5 X
Track quality 100.0 %
Test CRC 1DDD4F1F
Copy CRC 1DDD4F1F
Accurately ripped (confidence 2) [80EB6530] (AR v2)
Copy OK

Track 6

Filename D:\Nafta Releases\Motörhead - No Sleep 'Til Hammersmith (40th Anniversary) (2021) [FLAC] - Naftamusic\CD 4\06 - The Hammer.wav

Peak level 99.0 %
Extraction speed 4.8 X
Track quality 100.0 %
Test CRC 29C1C3CC
Copy CRC 29C1C3CC
Accurately ripped (confidence 2) [3EA719BB] (AR v2)
Copy OK

Track 7

Filename D:\Nafta Releases\Motörhead - No Sleep 'Til Hammersmith (40th Anniversary) (2021) [FLAC] - Naftamusic\CD 4\07 - Jailbait.wav

Peak level 98.9 %
Extraction speed 5.3 X
Track quality 100.0 %
Test CRC 2D4EF5E6
Copy CRC 2D4EF5E6
Accurately ripped (confidence 2) [C0D7CFE6] (AR v2)
Copy OK

Track 8

Filename D:\Nafta Releases\Motörhead - No Sleep 'Til Hammersmith (40th Anniversary) (2021) [FLAC] - Naftamusic\CD 4\08 - Leaving Here.wav

Peak level 99.0 %
Extraction speed 5.1 X
Track quality 100.0 %
Test CRC 07FA78CE
Copy CRC 07FA78CE
Accurately ripped (confidence 2) [C67A131A] (AR v2)
Copy OK

Track 9

Filename D:\Nafta Releases\Motörhead - No Sleep 'Til Hammersmith (40th Anniversary) (2021) [FLAC] - Naftamusic\CD 4\09 - Fire Fire.wav

Peak level 99.0 %
Extraction speed 5.6 X
Track quality 100.0 %
Test CRC 9749476D
Copy CRC 9749476D
Accurately ripped (confidence 2) [29E82B6A] (AR v2)
Copy OK

Track 10

Filename D:\Nafta Releases\Motörhead - No Sleep 'Til Hammersmith (40th Anniversary) (2021) [FLAC] - Naftamusic\CD 4\10 - Capricorn.wav

Peak level 99.0 %
Extraction speed 5.9 X
Track quality 100.0 %
Test CRC 7B825F89
Copy CRC 7B825F89
Accurately ripped (confidence 2) [A1D8CAAF] (AR v2)
Copy OK

Track 11

Filename D:\Nafta Releases\Motörhead - No Sleep 'Til Hammersmith (40th Anniversary) (2021) [FLAC] - Naftamusic\CD 4\11 - Too Late, Too Late.wav

Peak level 98.9 %
Extraction speed 5.9 X
Track quality 100.0 %
Test CRC 4CD62907
Copy CRC 4CD62907
Accurately ripped (confidence 2) [242F8BFF] (AR v2)
Copy OK

Track 12

Filename D:\Nafta Releases\Motörhead - No Sleep 'Til Hammersmith (40th Anniversary) (2021) [FLAC] - Naftamusic\CD 4\12 - No Class.wav

Peak level 99.0 %
Extraction speed 4.7 X
Track quality 99.9 %
Test CRC 3F82B9DE
Copy CRC 3F82B9DE
Accurately ripped (confidence 2) [FD155646] (AR v2)
Copy OK

Track 13

Filename D:\Nafta Releases\Motörhead - No Sleep 'Til Hammersmith (40th Anniversary) (2021) [FLAC] - Naftamusic\CD 4\13 - (We Are) The Road Crew.wav

Peak level 99.0 %
Extraction speed 5.8 X
Track quality 99.9 %
Test CRC 5F74342B
Copy CRC 5F74342B
Accurately ripped (confidence 2) [5C5CA1FF] (AR v2)
Copy OK

Track 14

Filename D:\Nafta Releases\Motörhead - No Sleep 'Til Hammersmith (40th Anniversary) (2021) [FLAC] - Naftamusic\CD 4\14 - Bite The Bullet.wav

Peak level 98.9 %
Extraction speed 4.0 X
Track quality 99.9 %
Test CRC 795AEBCE
Copy CRC 795AEBCE
Accurately ripped (confidence 2) [76E9975F] (AR v2)
Copy OK

Track 15

Filename D:\Nafta Releases\Motörhead - No Sleep 'Til Hammersmith (40th Anniversary) (2021) [FLAC] - Naftamusic\CD 4\15 - The Chase Is Better Than The Catch.wav

Peak level 99.0 %
Extraction speed 5.6 X
Track quality 99.9 %
Test CRC BED58AC9
Copy CRC BED58AC9
Accurately ripped (confidence 2) [639F4A4D] (AR v2)
Copy OK

Track 16

Filename D:\Nafta Releases\Motörhead - No Sleep 'Til Hammersmith (40th Anniversary) (2021) [FLAC] - Naftamusic\CD 4\16 - Overkill.wav

Peak level 99.0 %
Extraction speed 7.6 X
Track quality 100.0 %
Test CRC 1F778FB6
Copy CRC 1F778FB6
Accurately ripped (confidence 2) [D6EC139A] (AR v2)
Copy OK

Track 17

Filename D:\Nafta Releases\Motörhead - No Sleep 'Til Hammersmith (40th Anniversary) (2021) [FLAC] - Naftamusic\CD 4\17 - Bomber.wav

Peak level 99.0 %
Extraction speed 7.5 X
Track quality 100.0 %
Test CRC 4ACF5125
Copy CRC 4ACF5125
Accurately ripped (confidence 2) [A575006C] (AR v2)
Copy OK

Track 18

Filename D:\Nafta Releases\Motörhead - No Sleep 'Til Hammersmith (40th Anniversary) (2021) [FLAC] - Naftamusic\CD 4\18 - Motörhead.wav

Peak level 99.0 %
Extraction speed 6.0 X
Track quality 100.0 %
Test CRC B7A2EF6A
Copy CRC B7A2EF6A
Accurately ripped (confidence 2) [C2CC71BC] (AR v2)
Copy OK


All tracks accurately ripped

No errors occurred

End of status report

==== Log checksum D251B1CBDDB8F924CAD3C1E39D904C10887BA22A48184A15301B5C30E56BBE16 ====

Tracklist :::
CD1
1-1 Ace Of Spades 3:01
1-2 Stay Clean 2:50
1-3 Metropolis 3:31
1-4 The Hammer 3:05
1-5 Iron Horse / Born To Lose 3:58
1-6 No Class 2:34
1-7 Overkill 5:13
1-8 (We Are) The Road Crew 3:31
1-9 Capricorn 4:40
1-10 Bomber 3:24
1-11 Motorhead 4:47
1-12 Over The Top 3:04
1-13 Train Kept A-Rollin' 2:44
1-14 Stay Clean 2:39
1-15 Limb From Limb 6:29
1-16 Iron Horse 11:42
CD2
Live At Newcastle City Hall, 30th March 1981
2-1 Ace Of Spades 2:58
2-2 Stay Clean 2:42
2-3 Over The Top 3:07
2-4 Metropolis 3:43
2-5 Shoot You In The Back 3:15
2-6 The Hammer 3:27
2-7 Jailbait 4:08
2-8 Leaving Here 2:51
2-9 Iron Horse / Born To Lose 5:07
2-10 Fire Fire 3:19
2-11 Capricorn 4:46
2-12 Too Late, Too Late 3:58
2-13 No Class 2:51
2-14 (We Are) The Road Crew 5:13
2-15 Bite The Bullet 1:46
2-16 The Chase Is Better Than The Catch 4:33
2-17 Overkill 6:32
2-18 Bomber 4:00
2-19 Motorhead 5:30
CD3
Live At Newcastle City Hall, 29th March 1981
3-1 Ace Of Spades 2:52
3-2 Stay Clean 2:54
3-3 Over The Top 3:44
3-4 Metropolis 3:32
3-5 Shoot You In The Back 3:06
3-6 The Hammer 3:20
3-7 Jailbait 3:33
3-8 Leaving Here 3:10
3-9 Fire Fire 3:47
3-10 Capricorn 5:02
3-11 Too Late, Too Late 3:46
3-12 No Class 2:53
3-13 (We Are) The Road Crew 5:57
3-14 Bite The Bullet 1:39
3-15 The Chase Is Better Than The Catch 6:01
3-16 Overkill 5:44
3-17 Bomber 5:20
3-18 Motorhead 5:54
CD4
Live At Leeds Queens Hall, 28th March 1981
4-1 Ace Of Spades 3:02
4-2 Stay Clean 2:38
4-3 Over The Top 3:51
4-4 Metropolis 4:14
4-5 Shoot You In The Back 2:58
4-6 The Hammer 3:35
4-7 Jailbait 4:31
4-8 Leaving Here 2:55
4-9 Fire Fire 4:09
4-10 Capricorn 4:32
4-11 Too Late, Too Late 3:25
4-12 No Class 3:26
4-13 (We Are) The Road Crew 6:13
4-14 Bite The Bullet 2:02
4-15 The Chase Is Better Than The Catch 4:29
4-16 Overkill 8:11
4-17 Bomber 5:01
4-18 Motorhead 5:26

Tracks 1-14 to 1-16 - Soundcheck Newcastle 30th March 1981

Thanks to Original Re-leaser.