Tags
Language
Tags

Herbert von Karajan, James Levine, Rafael Kubelik - Mozart: Requiem, Great Mass in C minor, Missa brevis in C major (1998)

Posted By: ArlegZ
Herbert von Karajan, James Levine, Rafael Kubelik - Mozart: Requiem, Great Mass in C minor, Missa brevis in C major (1998)

Herbert von Karajan, James Levine, Rafael Kubelik - Mozart: Requiem, Great Mass in C minor, Missa brevis in C major (1998)
EAC | FLAC | Image (Cue & Log) ~ 571 Mb | Total time: 53:02+74:17 | Scans included
Classical | Label: Deutsche Grammophon | # 459 409-2 | Recorded: 1973, 1975, 1987

Two great recordings of two of the greatest choral works. Karajan and Levin swoops the standards of tempi, phrasing and intens music making. Karajan's finest recording of the Requiem. Levin sets the bar a milestone higher. Remastering of the Requiem is confidentional good. Sound quality of K427 is superb.

Performer:
Requiem in D minor, K.626
Anna Tomowa-Sintow, soprano
Agnes Baltsa, contralto
Werner Krenn, tenor
Jose van Dam, bass
Vienna Singverein
Berliner Philharmoniker
Herbert von Karajan, conductor
Great Mass in C minor, K.427
Kathleen Battle, soprano I
Lella Cuberli, soprano II
Peter Seiffert, tenor
Kurt Moll, bass
Konzertvereinigung Wiener Staatsopernchor
Wiener Philharmoniker
James Levine, conductor
Missa brevis in C major, K.220
Edith Mathis, soprano
Tatiana Troyanos, contralto
Horst R.Laubenthal, tenor
Kieth Engen, bass
Regensburger Domchor
Symphonieorchester des Bayerischen Rundfunks
Rafael Kubelik, conductor

Track List:
CD1:
Requiem in D minor, K.626
01. I. Introitus: Requiem
02. II. Kyrie
III. Sequentia:
03. Dies irae
04. Tuba mirum
05. Rex tremendae
06. Recordare
07. Confutatis
08. Lacrimosa
IV. Offertorium
09. Domine Jesu
10. Hostias
11. V. Sanctus
12. VI. Benedictus
13. VII. Agnus Dei
14. VIII.Communio: Lux aeterna
CD2:
Mass in C minor, K.427 "Grosse Messe"
01. Kyrie
Gloria
02. Gloria in excelsis Deo
03. Laudamus te
04. Gratias
05. Domine
06. Qui tollis
07. Quoniam
08. Jesu Christe
09. Cum Sancto spiritu
Credo
10. Credo in unum Deum
11. Et incarnatus est
Sanctus
12. Sanctus
13. Osanna
14. Benedictus
Missa brevis in C, K.220 "Spatzenmesse"
15. Kyrie
16. Gloria
17. Credo
18. Sanctus
19. Benedictus
20. Agnus Dei


Exact Audio Copy V1.6 from 23. October 2020

EAC extraction logfile from 22. May 2021, 14:18

Herbert von Karajan, Berliner Philharmoniker / Mozart - Requiem

Used drive : PIONEER DVD-RW DVR-218L Adapter: 1 ID: 0

Read mode : Secure
Utilize accurate stream : Yes
Defeat audio cache : Yes
Make use of C2 pointers : No

Read offset correction : 6
Overread into Lead-In and Lead-Out : No
Fill up missing offset samples with silence : Yes
Delete leading and trailing silent blocks : No
Null samples used in CRC calculations : Yes
Used interface : Native Win32 interface for Win NT & 2000

Used output format : User Defined Encoder
Selected bitrate : 128 kBit/s
Quality : High
Add ID3 tag : No
Command line compressor : C:\Program Files\Exact Audio Copy\Flac\flac.exe
Additional command line options : -V -8 -T "Date=%year%" -T "Genre=%genre%" %source%


TOC of the extracted CD

Track | Start | Length | Start sector | End sector
––––––––––––––––––––––––––––-
1 | 0:00.00 | 5:46.00 | 0 | 25949
2 | 5:46.00 | 2:48.70 | 25950 | 38619
3 | 8:34.70 | 1:52.00 | 38620 | 47019
4 | 10:26.70 | 4:13.05 | 47020 | 65999
5 | 14:40.00 | 2:27.00 | 66000 | 77024
6 | 17:07.00 | 5:18.13 | 77025 | 100887
7 | 22:25.13 | 2:24.62 | 100888 | 111749
8 | 24:50.00 | 3:22.00 | 111750 | 126899
9 | 28:12.00 | 3:50.00 | 126900 | 144149
10 | 32:02.00 | 4:28.00 | 144150 | 164249
11 | 36:30.00 | 1:44.60 | 164250 | 172109
12 | 38:14.60 | 5:13.50 | 172110 | 195634
13 | 43:28.35 | 3:35.18 | 195635 | 211777
14 | 47:03.53 | 6:17.22 | 211778 | 240074


Range status and errors

Selected range

Filename C:\ArlegZ\Mozart - Requiem - Herbert von Karajan.wav

Peak level 99.9 %
Extraction speed 1.8 X
Range quality 100.0 %
Copy CRC 7B1151B2
Copy OK

No errors occurred


AccurateRip summary

Track 1 cannot be verified as accurate (confidence 36) [62D2D58A], AccurateRip returned [085AD6E7] (AR v2)
Track 2 cannot be verified as accurate (confidence 37) [DB35BCF9], AccurateRip returned [072B8B8C] (AR v2)
Track 3 cannot be verified as accurate (confidence 38) [B9D7B3B7], AccurateRip returned [5648DEE0] (AR v2)
Track 4 cannot be verified as accurate (confidence 38) [280681F8], AccurateRip returned [E62D31A3] (AR v2)
Track 5 cannot be verified as accurate (confidence 38) [E8255333], AccurateRip returned [76A6B5DE] (AR v2)
Track 6 cannot be verified as accurate (confidence 38) [2871E0D9], AccurateRip returned [6B915600] (AR v2)
Track 7 cannot be verified as accurate (confidence 38) [731084AE], AccurateRip returned [4D52D68E] (AR v2)
Track 8 cannot be verified as accurate (confidence 38) [CB4D9F48], AccurateRip returned [725FB4F5] (AR v2)
Track 9 cannot be verified as accurate (confidence 38) [875EBDD5], AccurateRip returned [268E4713] (AR v2)
Track 10 cannot be verified as accurate (confidence 38) [1F60B31A], AccurateRip returned [F7D1E9CB] (AR v2)
Track 11 cannot be verified as accurate (confidence 38) [58340EF9], AccurateRip returned [EA330C51] (AR v2)
Track 12 cannot be verified as accurate (confidence 38) [5206524A], AccurateRip returned [8A2AE236] (AR v2)
Track 13 cannot be verified as accurate (confidence 38) [5DA50C73], AccurateRip returned [28C55335] (AR v2)
Track 14 cannot be verified as accurate (confidence 38) [7071891C], AccurateRip returned [E0AFC4B9] (AR v2)

No tracks could be verified as accurate
You may have a different pressing from the one(s) in the database

End of status report

–– CUETools DB Plugin V2.1.6

[CTDB TOCID: fA7Hg5_4YjO22LhTE69xfVyUIZM-] found
Submit result: fA7Hg5_4YjO22LhTE69xfVyUIZM- has been confirmed
Track | CTDB Status
1 | (163/163) Accurately ripped
2 | (163/163) Accurately ripped
3 | (162/163) Accurately ripped
4 | (163/163) Accurately ripped
5 | (162/163) Accurately ripped
6 | (163/163) Accurately ripped
7 | (163/163) Accurately ripped
8 | (163/163) Accurately ripped
9 | (162/163) Accurately ripped
10 | (161/163) Accurately ripped
11 | (163/163) Accurately ripped
12 | (161/163) Accurately ripped
13 | (161/163) Accurately ripped
14 | (160/163) Accurately ripped


==== Log checksum B9F151B9CC3FC8FCADF3CCD861D13EFBC1989A3AD93A296A6D1E0B33052C4425 ====


Exact Audio Copy V1.6 from 23. October 2020

EAC extraction logfile from 22. May 2021, 15:50

James Levine, Wiener Philharmoniker / Mozart - Great Mass in C minor, Missa brevis in C major

Used drive : PIONEER DVD-RW DVR-218L Adapter: 1 ID: 0

Read mode : Secure
Utilize accurate stream : Yes
Defeat audio cache : Yes
Make use of C2 pointers : No

Read offset correction : 6
Overread into Lead-In and Lead-Out : No
Fill up missing offset samples with silence : Yes
Delete leading and trailing silent blocks : No
Null samples used in CRC calculations : Yes
Used interface : Native Win32 interface for Win NT & 2000

Used output format : User Defined Encoder
Selected bitrate : 128 kBit/s
Quality : High
Add ID3 tag : No
Command line compressor : C:\Program Files\Exact Audio Copy\Flac\flac.exe
Additional command line options : -V -8 -T "Date=%year%" -T "Genre=%genre%" %source%


TOC of the extracted CD

Track | Start | Length | Start sector | End sector
––––––––––––––––––––––––––––-
1 | 0:00.00 | 6:46.00 | 0 | 30449
2 | 6:46.00 | 2:36.00 | 30450 | 42149
3 | 9:22.00 | 5:07.00 | 42150 | 65174
4 | 14:29.00 | 1:36.00 | 65175 | 72374
5 | 16:05.00 | 2:48.00 | 72375 | 84974
6 | 18:53.00 | 7:14.00 | 84975 | 117524
7 | 26:07.00 | 4:18.00 | 117525 | 136874
8 | 30:25.00 | 0:43.10 | 136875 | 140109
9 | 31:08.10 | 4:00.65 | 140110 | 158174
10 | 35:09.00 | 3:43.00 | 158175 | 174899
11 | 38:52.00 | 8:23.39 | 174900 | 212663
12 | 47:15.39 | 1:58.13 | 212664 | 221526
13 | 49:13.52 | 2:03.23 | 221527 | 230774
14 | 51:17.00 | 6:14.00 | 230775 | 258824
15 | 57:31.00 | 1:43.10 | 258825 | 266559
16 | 59:14.10 | 3:02.10 | 266560 | 280219
17 | 62:16.20 | 4:15.25 | 280220 | 299369
18 | 66:31.45 | 0:54.13 | 299370 | 303432
19 | 67:25.58 | 3:17.54 | 303433 | 318261
20 | 70:43.37 | 3:33.38 | 318262 | 334274


Range status and errors

Selected range

Filename C:\ArlegZ\Mozart - Great Mass in C minor, Missa brevis in C major.wav

Peak level 99.3 %
Extraction speed 2.0 X
Range quality 100.0 %
Test CRC 3A90CDA9
Copy CRC 3A90CDA9
Copy OK

No errors occurred


AccurateRip summary

Track 1 accurately ripped (confidence 2) [7894B836] (AR v1)
Track 2 accurately ripped (confidence 2) [E64AD41F] (AR v1)
Track 3 accurately ripped (confidence 2) [B2A90508] (AR v1)
Track 4 accurately ripped (confidence 2) [D1A776DE] (AR v1)
Track 5 accurately ripped (confidence 2) [07DC325D] (AR v1)
Track 6 accurately ripped (confidence 2) [584817ED] (AR v1)
Track 7 accurately ripped (confidence 2) [6F9DC401] (AR v1)
Track 8 accurately ripped (confidence 2) [20F9B45B] (AR v1)
Track 9 accurately ripped (confidence 2) [E57BBDA6] (AR v1)
Track 10 accurately ripped (confidence 2) [E09CEB9C] (AR v1)
Track 11 accurately ripped (confidence 2) [F9AF917E] (AR v1)
Track 12 accurately ripped (confidence 2) [E1BE9BD9] (AR v1)
Track 13 accurately ripped (confidence 2) [AADED3AE] (AR v1)
Track 14 accurately ripped (confidence 2) [E726AF09] (AR v1)
Track 15 accurately ripped (confidence 2) [BF722AE4] (AR v1)
Track 16 accurately ripped (confidence 2) [0656253A] (AR v1)
Track 17 accurately ripped (confidence 2) [8F94181A] (AR v1)
Track 18 accurately ripped (confidence 2) [DD739FE6] (AR v1)
Track 19 accurately ripped (confidence 2) [90289BA9] (AR v1)
Track 20 accurately ripped (confidence 2) [34619F39] (AR v1)

All tracks accurately ripped

End of status report

–– CUETools DB Plugin V2.1.6

[CTDB TOCID: SiHRxNrXLaZsIH7a_JpqVm_0IOg-] found
Submit result: SiHRxNrXLaZsIH7a_JpqVm_0IOg- has been confirmed
Track | CTDB Status
1 | (33/33) Accurately ripped
2 | (33/33) Accurately ripped
3 | (33/33) Accurately ripped
4 | (33/33) Accurately ripped
5 | (33/33) Accurately ripped
6 | (33/33) Accurately ripped
7 | (33/33) Accurately ripped
8 | (33/33) Accurately ripped
9 | (33/33) Accurately ripped
10 | (33/33) Accurately ripped
11 | (33/33) Accurately ripped
12 | (33/33) Accurately ripped
13 | (33/33) Accurately ripped
14 | (33/33) Accurately ripped
15 | (33/33) Accurately ripped
16 | (33/33) Accurately ripped
17 | (33/33) Accurately ripped
18 | (33/33) Accurately ripped
19 | (33/33) Accurately ripped
20 | (32/33) Accurately ripped


==== Log checksum 23CABFF6F26AA37E52E360D110CB2773DE5ECAC407DFFFCCF419D030AA89B8B8 ====

Herbert von Karajan, James Levine, Rafael Kubelik - Mozart: Requiem, Great Mass in C minor, Missa brevis in C major (1998)