Subcategories
Tags
Language
Tags

Mt. Desolation - Mt. Desolation (2010)

Posted By: Designol
Mt. Desolation - Mt. Desolation (2010)

Mt. Desolation - Mt. Desolation (2010)
EAC | FLAC | Image (Cue&Log) ~ 291 Mb | Mp3 (CBR320) ~ 113 Mb | Scans ~ 34 Mb
Atternative Country-Rock, Alt. Country, Indie Folk | Label: V2 | # VVR751758 | 00:49:13

‘Tis the season for country-themed side projects. Just a few weeks before Mt. Desolation’s release, Tired Pony – another indie rock supergroup with rootsy inclinations – issued their own debut. What was billed as a country album turned out to be little more than standard pop/rock, though, which makes Mt. Desolation’s debut – recorded by a loose group of British musicians, with Keane's Tim Rice-Oxley and Jesse Quin serving as co-captains – all the more charming. The best songs here sound like genuine Americana, not pop songs dressed up in acoustic guitars and cowboy shirts, and even the filler material has a cohesion that’s rare for most first-time supergroups. “The Midnight Ghost,” with its barroom ambience and harmony vocals, is a woozy Western ballad that takes its cues from Patsy Cline and Loretta Lynn, while “Platform 7” – featuring the Killers’ Ronnie Vannucci on percussion – is bar band country-rock, filled with all the twangy trimmings that the Killers attempted (with mixed results) on Sam’s Town. Both of those highlights are pushed toward the back end of Mt. Desolation, and while that makes the album a tad bottom-heavy, it also means the track list doesn’t lose steam as it moves into its second half. Side projects with revolving lineups often result in scattered, hit-or-miss albums, but Mt. Desolation seems to be the exception.

Review by Andrew Leahey, Allmusic.com

Mt. Desolation - Mt. Desolation (2010)



Tracklist:

01. Departure (3:38)
02. Annie Ford (4:21)
03. Bridal Gown (4:57)
04. State of Our Affairs (4:39)
05. Bitter Pill (4:11)
06. Another Night On My Side (3:01)
07. The 'Midnight Ghost' (5:06)
08. Platform 7 (3:34)
09. My My My (3:50)
10. Coming Home (11:56)


Exact Audio Copy V1.3 from 2. September 2016

Отчёт EAC об извлечении, выполненном 12. февраля 2017, 17:13

Mt. Desolation / Mt. Desolation

Дисковод: PIONEER BD-RW BDR-208M Adapter: 1 ID: 0

Режим чтения : Достоверность
Использование точного потока : Да
Отключение кэша аудио : Да
Использование указателей C2 : Нет

Коррекция смещения при чтении : 667
Способность читать области Lead-in и Lead-out : Нет
Заполнение пропущенных сэмплов тишиной : Да
Удаление блоков с тишиной в начале и конце : Нет
При вычислениях CRC использовались нулевые сэмплы : Да
Интерфейс : Встроенный Win32-интерфейс для Win NT/2000

Выходной формат : Пользовательский кодировщик
Выбранный битрейт : 1024 kBit/s
Качество : Высокий
Добавление ID3-тега : Да
Утилита сжатия : C:\Program Files\Exact Audio Copy\Flac\flac.exe
Дополнительные параметры : -V -8 -T "Date=%year%" -T "Genre=%genre%" %source%


TOC извлечённого CD

Трек | Старт | Длительность | Начальный сектор | Конечный сектор
––––––––––––––––––––––––––––––––––-
1 | 0:00.00 | 3:37.57 | 0 | 16331
2 | 3:37.57 | 4:21.23 | 16332 | 35929
3 | 7:59.05 | 4:57.37 | 35930 | 58241
4 | 12:56.42 | 4:39.03 | 58242 | 79169
5 | 17:35.45 | 4:10.65 | 79170 | 97984
6 | 21:46.35 | 3:01.17 | 97985 | 111576
7 | 24:47.52 | 5:05.38 | 111577 | 134489
8 | 29:53.15 | 3:34.27 | 134490 | 150566
9 | 33:27.42 | 3:49.48 | 150567 | 167789
10 | 37:17.15 | 11:55.65 | 167790 | 221479


Характеристики диапазона извлечения и сообщения об ошибках

Выбранный диапазон

Имя файла Z:\Музыка\Mt. Desolation\Mt. Desolation - Mt. Desolation.wav

Пиковый уровень 100.0 %
Скорость извлечения 6.7 X
Качество диапазона 100.0 %
CRC теста 83424F3A
CRC копии 83424F3A
Копирование… OK

Ошибок не произошло


AccurateRip: сводка

Трек 1 : извлечено точно (доверие 4) [26B88AE1] (AR v2)
Трек 2 : извлечено точно (доверие 4) [FEF39E04] (AR v2)
Трек 3 : извлечено точно (доверие 4) [6BD1DA1D] (AR v2)
Трек 4 : извлечено точно (доверие 4) [4E178143] (AR v2)
Трек 5 : извлечено точно (доверие 4) [F1DF4715] (AR v2)
Трек 6 : извлечено точно (доверие 4) [EC7FB93B] (AR v2)
Трек 7 : извлечено точно (доверие 4) [70D6125B] (AR v2)
Трек 8 : извлечено точно (доверие 4) [F2BB7424] (AR v2)
Трек 9 : извлечено точно (доверие 4) [3260A644] (AR v2)
Трек 10 : извлечено точно (доверие 4) [164D6AD7] (AR v2)

Все треки извлечены точно

Конец отчёта

==== Контрольная сумма отчёта FF15AF9450D0E0FED2A2295DC40DA3BD7EC76A230C0B4570E9E0EFD43C189C7E ====

foobar2000 1.2 / Dynamic Range Meter 1.1.1
log date: 2017-06-24 15:08:38

––––––––––––––––––––––––––––––––––––––––
Analyzed: Mt. Desolation / Mt. Desolation
––––––––––––––––––––––––––––––––––––––––

DR Peak RMS Duration Track
––––––––––––––––––––––––––––––––––––––––
DR5 0.00 dB -6.73 dB 3:38 01-Departure
DR5 0.00 dB -7.17 dB 4:21 02-Annie Ford
DR8 0.00 dB -10.38 dB 4:57 03-Bridal Gown
DR9 0.00 dB -11.79 dB 4:39 04-State of Our Affairs
DR5 -0.20 dB -6.77 dB 4:11 05-Bitter Pill
DR8 0.00 dB -10.12 dB 3:01 06-Another Night On My Side
DR8 0.00 dB -10.43 dB 5:06 07-The 'Midnight Ghost'
DR5 0.00 dB -6.43 dB 3:34 08-Platform 7
DR11 0.00 dB -14.17 dB 3:50 09-My My My
DR8 0.00 dB -11.78 dB 11:56 10-Coming Home
––––––––––––––––––––––––––––––––––––––––

Number of tracks: 10
Official DR value: DR7

Samplerate: 44100 Hz
Channels: 2
Bits per sample: 16
Bitrate: 825 kbps
Codec: FLAC
================================================================================

Mt. Desolation - Mt. Desolation (2010)

Mt. Desolation - Mt. Desolation (2010)

All thanks to original releaser - veingray

More interesting music in My Blog