Subcategories

Chicago Symphony Orchestra, Riccardo Muti - Anton Bruckner: Symphony No. 9 (2017)

Posted By: Designol
Chicago Symphony Orchestra, Riccardo Muti - Anton Bruckner: Symphony No. 9 (2017)

Anton Bruckner: Symphony No. 9 (2017)
Chicago Symphony Orchestra, conducted by Riccardo Muti

EAC | FLAC | Image (Cue&Log) ~ 313 Mb | Scans included
Classical | Label: CSO-Resound | # CSOR901 1701 | 01:02:20

For this 2017 CSO-Resound release, Riccardo Muti and the Chicago Symphony Orchestra present Anton Bruckner's unfinished Symphony No. 9 in D minor in a monumental performance that impresses with its marmoreal weight, poignant lyricism, and brutal volatility. Not widely known for his few Bruckner recordings, Muti nonetheless delivers this symphony with the passion and sensitivity of an experienced Brucknerian, and possibly because he hasn't recorded it before, this live rendition of the Ninth seems like an attempt to make up for lost time. Muti's intensity and the orchestra's ferocious power combine to make a memorable reading that may remind listeners of performances by such greats as Günter Wand, Eugen Jochum, and particularly Carlo Maria Giulini, whose recordings of the Ninth are recognized benchmarks. While Muti only performs the three completed movements, and eschews any attempted reconstructions of the surviving Finale sketches, the performance has a genuine feeling of wholeness, and the Adagio particularly has the grandeur and pathos that make it feel like a convincing ending, albeit one that the composer did not intend. CSO-Resound's recorded sound is superb and approaches the highest audiophile standards.

Review by Blair Sanderson, Allmusic.com

Chicago Symphony Orchestra, Riccardo Muti - Anton Bruckner: Symphony No. 9 (2017)



Chicago Symphony Orchestra, Riccardo Muti - Anton Bruckner: Symphony No. 9 (2017)



Tracklist:

Symphony No. 9 in D minor, WAB 109
01. I. Feierlich, misterioso (26:29)
02. II. Scherzo. Bewegt, lebhaft (10:52)
03. III. Adagio. Langsam, feierlich (24:59)


Exact Audio Copy V1.0 beta 1 from 15. November 2010

EAC extraction logfile from 4. August 2017, 23:54

Riccardo Muti / Bruckner - Symphony No.9 (Muti)

Used drive : Optiarc DVD RW AD-7203A Adapter: 4 ID: 1

Read mode : Secure
Utilize accurate stream : Yes
Defeat audio cache : Yes
Make use of C2 pointers : No

Read offset correction : 48
Overread into Lead-In and Lead-Out : No
Fill up missing offset samples with silence : Yes
Delete leading and trailing silent blocks : No
Null samples used in CRC calculations : Yes
Used interface : Native Win32 interface for Win NT & 2000

Used output format : User Defined Encoder
Selected bitrate : 128 kBit/s
Quality : High
Add ID3 tag : No
Command line compressor : C:\Program Files\FLAC\flac.exe
Additional command line options : -T "COMMENT=Ripped by GFox" -8 -V %s


TOC of the extracted CD

Track | Start | Length | Start sector | End sector
––––––––––––––––––––––––––––-
1 | 0:00.00 | 26:29.13 | 0 | 119187
2 | 26:29.13 | 10:52.31 | 119188 | 168118
3 | 37:21.44 | 24:58.64 | 168119 | 280532


Range status and errors

Selected range

Filename D:\EAC\Riccardo Muti - Bruckner - Symphony No.9 (Muti).wav

Peak level 96.4 %
Extraction speed 1.2 X
Range quality 100.0 %
Test CRC 1B8C6D8E
Copy CRC 1B8C6D8E
Copy OK

No errors occurred


AccurateRip summary

Track 1 accurately ripped (confidence 1) [18894047]
Track 2 accurately ripped (confidence 1) [9A13BAEE]
Track 3 accurately ripped (confidence 1) [CB38036A]

All tracks accurately ripped

End of status report

==== Log checksum 122FF1628A07FE05E7E4F12F6FF46C8494BE697002CEF8C78BFEF24C3F824FFE ====

foobar2000 1.2 / Dynamic Range Meter 1.1.1
log date: 2017-08-05 15:26:07

––––––––––––––––––––––––––––––––––––––––
Analyzed: Riccardo Muti / Bruckner - Symphony No.9 (Muti)
––––––––––––––––––––––––––––––––––––––––

DR Peak RMS Duration Track
––––––––––––––––––––––––––––––––––––––––
DR12 -0.59 dB -18.35 dB 26:29 01-I. Feierlich, misterioso
DR12 -0.31 dB -17.90 dB 10:52 02-II. Scherzo. Bewegt, lebhaft
DR13 -1.76 dB -21.23 dB 24:59 03-III. Adagio. Langsam, feierlich
––––––––––––––––––––––––––––––––––––––––

Number of tracks: 3
Official DR value: DR13

Samplerate: 44100 Hz
Channels: 2
Bits per sample: 16
Bitrate: 613 kbps
Codec: FLAC
================================================================================

Chicago Symphony Orchestra, Riccardo Muti - Anton Bruckner: Symphony No. 9 (2017)

All thanks to original releaser - GFox

More interesting music in My Blog