Tags
Language
Tags

VA - Norbit (Original Motion Picture Soundtrack) ‎(2007) {Lakeshore} **[RE-UP]**

Posted By: TestTickles
VA - Norbit (Original Motion Picture Soundtrack) ‎(2007) {Lakeshore} **[RE-UP]**

VA - Norbit (Original Motion Picture Soundtrack) ‎(2007) {Lakeshore}
EAC Rip | FLAC with CUE and log | scans | 305 mb
MP3 CBR 320kbps | RAR | 130 mb
Genre: soundtrack, hip-hop, soul, R&B, gospel, incidental

This is the 2007 soundtrack album to the American comedy film Norbit. This features music by Kirk Franklin, Dusty Springfield, Yung Joc and many more. Lakeshore helped give the music its magic.

VA - Norbit (Original Motion Picture Soundtrack) ‎(2007) {Lakeshore} **[RE-UP]**

01. The Fairfield Four - Standing In The Safety Zone
02. Yung Joc - It's Goin' Down
03. Kate Joy Earl featuring The Designated Hitters - You Did
04. Dusty Springfield - I Only Want To Be With You
05. Kelis - Milkshake
06. The Coasters - Shoppin' For Clothes
07. Unk - Walk It Out
08. Kirk Franklin - Looking For You
09. Slightly Stoopid - Sweet Honey
10. Perfect Circle - The Hands Of Time
11. David Newman - Young Norbit
12. David Newman - Queen Of Whores
13. David Newman - Tuesday, Tuesday
14. David Newman - Norbit Sneaks Out
15. David Newman - Rasputia's Fury
16. David Newman - Norbit And Kate

Exact Audio Copy V1.1 from 23. June 2015

EAC extraction logfile from 5. April 2017, 9:52

Various Artists / Norbit (Original Motion Picture Soundtrack)

Used drive : TEAC DVD-ROM DV-28SW Adapter: 1 ID: 0

Read mode : Secure
Utilize accurate stream : Yes
Defeat audio cache : Yes
Make use of C2 pointers : No

Read offset correction : 6
Overread into Lead-In and Lead-Out : No
Fill up missing offset samples with silence : Yes
Delete leading and trailing silent blocks : No
Null samples used in CRC calculations : Yes
Used interface : Native Win32 interface for Win NT & 2000
Gap handling : Appended to previous track

Used output format : Internal WAV Routines
Sample format : 44.100 Hz; 16 Bit; Stereo


TOC of the extracted CD

Track | Start | Length | Start sector | End sector
––––––––––––––––––––––––––––-
1 | 0:00.00 | 2:41.38 | 0 | 12112
2 | 2:41.38 | 4:03.70 | 12113 | 30407
3 | 6:45.33 | 2:26.08 | 30408 | 41365
4 | 9:11.41 | 2:37.07 | 41366 | 53147
5 | 11:48.48 | 3:04.47 | 53148 | 66994
6 | 14:53.20 | 2:58.35 | 66995 | 80379
7 | 17:51.55 | 2:54.59 | 80380 | 93488
8 | 20:46.39 | 4:06.59 | 93489 | 111997
9 | 24:53.23 | 3:52.27 | 111998 | 129424
10 | 28:45.50 | 6:19.70 | 129425 | 157919
11 | 35:05.45 | 3:33.49 | 157920 | 173943
12 | 38:39.19 | 0:46.04 | 173944 | 177397
13 | 39:25.23 | 3:24.45 | 177398 | 192742
14 | 42:49.68 | 0:33.09 | 192743 | 195226
15 | 43:23.02 | 1:44.46 | 195227 | 203072
16 | 45:07.48 | 0:55.35 | 203073 | 207232


Track 1

Filename C:\My Documents\My FLAC\VA - Norbit (Original Motion Picture Soundtrack) ‎(2007) [FLAC] {Lakeshore}\01 - The Fairfield Four - Standing In The Safety Zone.wav

Pre-gap length 0:00:02.00

Peak level 100.0 %
Extraction speed 2.4 X
Track quality 100.0 %
Test CRC A31B7A3D
Copy CRC A31B7A3D
Track not present in AccurateRip database
Copy OK

Track 2

Filename C:\My Documents\My FLAC\VA - Norbit (Original Motion Picture Soundtrack) ‎(2007) [FLAC] {Lakeshore}\02 - Yung Joc - It's Goin' Down.wav

Pre-gap length 0:00:02.00

Peak level 78.5 %
Extraction speed 3.1 X
Track quality 100.0 %
Test CRC 76B63942
Copy CRC 76B63942
Track not present in AccurateRip database
Copy OK

Track 3

Filename C:\My Documents\My FLAC\VA - Norbit (Original Motion Picture Soundtrack) ‎(2007) [FLAC] {Lakeshore}\03 - Kate Joy Earl featuring The Designated Hitters - You Did.wav

Pre-gap length 0:00:02.00

Peak level 73.6 %
Extraction speed 2.9 X
Track quality 100.0 %
Test CRC 4FA643FF
Copy CRC 4FA643FF
Track not present in AccurateRip database
Copy OK

Track 4

Filename C:\My Documents\My FLAC\VA - Norbit (Original Motion Picture Soundtrack) ‎(2007) [FLAC] {Lakeshore}\04 - Dusty Springfield - I Only Want To Be With You.wav

Pre-gap length 0:00:02.00

Peak level 100.0 %
Extraction speed 3.2 X
Track quality 100.0 %
Test CRC 72C222B1
Copy CRC 72C222B1
Track not present in AccurateRip database
Copy OK

Track 5

Filename C:\My Documents\My FLAC\VA - Norbit (Original Motion Picture Soundtrack) ‎(2007) [FLAC] {Lakeshore}\05 - Kelis - Milkshake.wav

Pre-gap length 0:00:02.00

Peak level 69.8 %
Extraction speed 3.2 X
Track quality 100.0 %
Test CRC 69A5CFAC
Copy CRC 69A5CFAC
Track not present in AccurateRip database
Copy OK

Track 6

Filename C:\My Documents\My FLAC\VA - Norbit (Original Motion Picture Soundtrack) ‎(2007) [FLAC] {Lakeshore}\06 - The Coasters - Shoppin' For Clothes.wav

Pre-gap length 0:00:02.00

Peak level 100.0 %
Extraction speed 1.8 X
Track quality 100.0 %
Test CRC 4CBEB40D
Copy CRC 4CBEB40D
Track not present in AccurateRip database
Copy OK

Track 7

Filename C:\My Documents\My FLAC\VA - Norbit (Original Motion Picture Soundtrack) ‎(2007) [FLAC] {Lakeshore}\07 - Unk - Walk It Out.wav

Pre-gap length 0:00:02.00

Peak level 83.8 %
Extraction speed 2.8 X
Track quality 100.0 %
Test CRC 8E43E375
Copy CRC 8E43E375
Track not present in AccurateRip database
Copy OK

Track 8

Filename C:\My Documents\My FLAC\VA - Norbit (Original Motion Picture Soundtrack) ‎(2007) [FLAC] {Lakeshore}\08 - Kirk Franklin - Looking For You.wav

Pre-gap length 0:00:02.00

Peak level 78.4 %
Extraction speed 3.0 X
Track quality 100.0 %
Test CRC FA7E093E
Copy CRC FA7E093E
Track not present in AccurateRip database
Copy OK

Track 9

Filename C:\My Documents\My FLAC\VA - Norbit (Original Motion Picture Soundtrack) ‎(2007) [FLAC] {Lakeshore}\09 - Slightly Stoopid - Sweet Honey.wav

Pre-gap length 0:00:02.00

Peak level 74.2 %
Extraction speed 3.9 X
Track quality 100.0 %
Test CRC 323AC56D
Copy CRC 323AC56D
Track not present in AccurateRip database
Copy OK

Track 10

Filename C:\My Documents\My FLAC\VA - Norbit (Original Motion Picture Soundtrack) ‎(2007) [FLAC] {Lakeshore}\10 - Perfect Circle - The Hands Of Time.wav

Pre-gap length 0:00:02.00

Peak level 99.9 %
Extraction speed 4.6 X
Track quality 100.0 %
Test CRC 95D00513
Copy CRC 95D00513
Track not present in AccurateRip database
Copy OK

Track 11

Filename C:\My Documents\My FLAC\VA - Norbit (Original Motion Picture Soundtrack) ‎(2007) [FLAC] {Lakeshore}\11 - David Newman - Young Norbit.wav

Pre-gap length 0:00:02.00

Peak level 99.9 %
Extraction speed 4.3 X
Track quality 100.0 %
Test CRC 33D8A47E
Copy CRC 33D8A47E
Track not present in AccurateRip database
Copy OK

Track 12

Filename C:\My Documents\My FLAC\VA - Norbit (Original Motion Picture Soundtrack) ‎(2007) [FLAC] {Lakeshore}\12 - David Newman - Queen Of Whores.wav

Pre-gap length 0:00:02.00

Peak level 99.9 %
Extraction speed 2.6 X
Track quality 100.0 %
Test CRC 342B2A1A
Copy CRC 342B2A1A
Track not present in AccurateRip database
Copy OK

Track 13

Filename C:\My Documents\My FLAC\VA - Norbit (Original Motion Picture Soundtrack) ‎(2007) [FLAC] {Lakeshore}\13 - David Newman - Tuesday, Tuesday.wav

Pre-gap length 0:00:02.00

Peak level 99.9 %
Extraction speed 3.7 X
Track quality 100.0 %
Test CRC CC121E74
Copy CRC CC121E74
Track not present in AccurateRip database
Copy OK

Track 14

Filename C:\My Documents\My FLAC\VA - Norbit (Original Motion Picture Soundtrack) ‎(2007) [FLAC] {Lakeshore}\14 - David Newman - Norbit Sneaks Out.wav

Pre-gap length 0:00:02.00

Peak level 91.6 %
Extraction speed 2.6 X
Track quality 100.0 %
Test CRC C1FE6BE7
Copy CRC C1FE6BE7
Track not present in AccurateRip database
Copy OK

Track 15

Filename C:\My Documents\My FLAC\VA - Norbit (Original Motion Picture Soundtrack) ‎(2007) [FLAC] {Lakeshore}\15 - David Newman - Rasputia's Fury.wav

Pre-gap length 0:00:02.00

Peak level 99.9 %
Extraction speed 4.0 X
Track quality 100.0 %
Test CRC 404C951C
Copy CRC 404C951C
Track not present in AccurateRip database
Copy OK

Track 16

Filename C:\My Documents\My FLAC\VA - Norbit (Original Motion Picture Soundtrack) ‎(2007) [FLAC] {Lakeshore}\16 - David Newman - Norbit And Kate.wav

Pre-gap length 0:00:01.68

Peak level 99.9 %
Extraction speed 2.2 X
Track quality 99.8 %
Test CRC 11A51613
Copy CRC 11A51613
Track not present in AccurateRip database
Copy OK


None of the tracks are present in the AccurateRip database

No errors occurred

End of status report

–– CUETools DB Plugin V2.1.6

[CTDB TOCID: 9X0v5rqX9.Tk.7QfplMViyne4qc-] found
Submit result: 9X0v5rqX9.Tk.7QfplMViyne4qc- has been confirmed
Track | CTDB Status
1 | (1/1) Accurately ripped
2 | (1/1) Accurately ripped
3 | (1/1) Accurately ripped
4 | (1/1) Accurately ripped
5 | (1/1) Accurately ripped
6 | (1/1) Accurately ripped
7 | (1/1) Accurately ripped
8 | (1/1) Accurately ripped
9 | (1/1) Accurately ripped
10 | (1/1) Accurately ripped
11 | (1/1) Accurately ripped
12 | (1/1) Accurately ripped
13 | (1/1) Accurately ripped
14 | (1/1) Accurately ripped
15 | (1/1) Accurately ripped
16 | (1/1) Accurately ripped


==== Log checksum 37AC62D1E307E20066D4045418071FE0DED61BAAC8512B7D4A5B84A0A42BCE80 ====


VA - Norbit (Original Motion Picture Soundtrack) ‎(2007) {Lakeshore} **[RE-UP]**