Subcategories

Nat King Cole & Dean Martin - Christmas With Nat & Dean (1990) (Repost)

Posted By: gribovar
Nat King Cole & Dean Martin - Christmas With Nat & Dean (1990) (Repost)

Nat King Cole & Dean Martin - Christmas With Nat & Dean (1990)
EAC Rip | FLAC (image+.cue+log) - 338 MB | MP3 CBR 320 kbps (LAME 3.93) - 125 MB | Covers (5 MB) included
Genre: Vocal Jazz, Christmas | RAR 3% Rec. | Label: EMI (7243 8 21081 2 2)

Sweet and nostalgic Christmas album with two golden voices that are not with us any more. Nat King Cole and Dean Martin take turns and sing 22 xmas classics. Listen to O Tannenbaum, Adeste Fideles, Silent Night with Nat, Let it snow, Rudolph the red nose reindeer, White Christmas with Dean and feel like a little child again. Not much need to be said. Just a small masterpiece.
Tracklist:
01. Nat King Cole - The Christmas Song
02. Nat King Cole - Joy To The World
03. Dean Martin - Winter Wonderland
04. Nat King Cole - The Happiest Christmas Tree
05. Nat King Cole - Deck The Hall
06. Dean Martin - White Christmas
07. Nat King Cole - O' Tannenbaum
08. Nat King Cole - Silent Night
09. Dean Martin - Brahms Lullaby
10. Nat King Cole - Buon Natale
11. Nat King Cole - Adeste Fideles
12. Nat King Cole - Frosty The Snowman
13. Nat King Cole - God Rest Ye Merry Gentlemen
14. Dean Martin - Rudolph The Red Nosed Reindeer
15. Nat King Cole - The Little Boy That Santa Claus Forgot
16. Nat King Cole - A Cradle In Bethlehem
17. Dean Martin - The Christmas Blues
18. Nat King Cole - Mrs Santa Claus
19. Nat King Cole - Caroling, Caroling
20. Dean Martin - Let It Snow, Let It Snow, Let It Snow
21. Nat King Cole - O Little Town Of Bethlehem
22. Nat King Cole - O Holy Night

Total time: 50:54

Exact Audio Copy V0.99 prebeta 4 from 23. January 2008

Отчёт EAC об извлечении, выполненном 10. июля 2009, 19:50

Nat King Cole & Dean Martin / Christmas With Nat & Dean

Дисковод: Optiarc DVD RW AD-7203S Adapter: 3 ID: 1

Режим чтения : Достоверность
Использование точного потока : Да
Отключение кэша аудио : Да
Использование указателей C2 : Нет

Коррекция смещения при чтении : 48
Способность читать области Lead-in и Lead-out : Нет
Заполнение пропущенных сэмплов тишиной : Да
Удаление блоков с тишиной в начале и конце : Нет
При вычислениях CRC использовались нулевые сэмплы : Да
Интерфейс : Установленный внешний ASPI-интерфейс

Выходной формат : Пользовательский кодировщик
Выбранный битрейт : 896 kBit/s
Качество : Высокий
Добавление ID3-тэга : Нет
Утилита сжатия : C:\Program Files\Exact Audio Copy\Flac\flac.exe
Дополнительные параметры : -0 -V -T "ARTIST=%a" -T "TITLE=%t" -T "ALBUM=%g" -T "DATE=%y" -T "TRACKNUMBER=%n" -T "GENRE=%m" -T "COMMENT=EAC FLAC -8" %s


TOC извлечённого CD

Трек | Старт | Длительность | Начальный сектор | Конечный сектор
––––––––––––––––––––––––––––––––––-
1 | 0:00.33 | 3:14.65 | 33 | 14647
2 | 3:15.23 | 1:26.15 | 14648 | 21112
3 | 4:41.38 | 1:54.10 | 21113 | 29672
4 | 6:35.48 | 1:53.70 | 29673 | 38217
5 | 8:29.43 | 1:09.00 | 38218 | 43392
6 | 9:38.43 | 2:29.72 | 43393 | 54639
7 | 12:08.40 | 3:02.08 | 54640 | 68297
8 | 15:10.48 | 2:09.70 | 68298 | 78042
9 | 17:20.43 | 3:01.05 | 78043 | 91622
10 | 20:21.48 | 1:36.47 | 91623 | 98869
11 | 21:58.20 | 2:28.28 | 98870 | 109997
12 | 24:26.48 | 2:20.67 | 109998 | 120564
13 | 26:47.40 | 1:27.65 | 120565 | 127154
14 | 28:15.30 | 2:16.13 | 127155 | 137367
15 | 30:31.43 | 2:33.55 | 137368 | 148897
16 | 33:05.23 | 3:26.17 | 148898 | 164364
17 | 36:31.40 | 2:55.65 | 164365 | 177554
18 | 39:27.30 | 2:09.05 | 177555 | 187234
19 | 41:36.35 | 2:03.00 | 187235 | 196459
20 | 43:39.35 | 1:56.70 | 196460 | 205229
21 | 45:36.30 | 2:20.70 | 205230 | 215799
22 | 47:57.25 | 2:56.33 | 215800 | 229032


Характеристики диапазона извлечения и сообщения об ошибках

Выбранный диапазон

Имя файла K:\Torrent\Jazz\Nat King Cole & Dean Martinа - Christmas With Nat & Dean\Nat King Cole & Dean Martin - Christmas With Nat & Dean.wav

Пиковый уровень 100.0 %
Качество диапазона 100.0 %
CRC теста 94981E6B
CRC копии 94981E6B
Копирование… OK

Ошибок не произошло


AccurateRip: сводка

Трек 1 точное извлечение (доверие 8) [5C8949C4]
Трек 2 точное извлечение (доверие 8) [63BE0F18]
Трек 3 точное извлечение (доверие 8) [10888FFE]
Трек 4 точное извлечение (доверие 8) [96361D85]
Трек 5 точное извлечение (доверие 8) [0081EAFF]
Трек 6 точное извлечение (доверие 8) [A1CBC4F8]
Трек 7 точное извлечение (доверие 8) [02BD2B56]
Трек 8 точное извлечение (доверие 8) [35C083A8]
Трек 9 точное извлечение (доверие 8) [E9173AFC]
Трек 10 точное извлечение (доверие 8) [4C638C33]
Трек 11 точное извлечение (доверие 8) [FD7FC399]
Трек 12 точное извлечение (доверие 8) [43DCC5E5]
Трек 13 точное извлечение (доверие 8) [432F903E]
Трек 14 точное извлечение (доверие 8) [5B149506]
Трек 15 точное извлечение (доверие 8) [1F45054F]
Трек 16 точное извлечение (доверие 8) [9A899035]
Трек 17 точное извлечение (доверие 8) [E3143743]
Трек 18 точное извлечение (доверие 8) [E3D3872D]
Трек 19 точное извлечение (доверие 8) [76E6CF99]
Трек 20 точное извлечение (доверие 8) [42824B78]
Трек 21 точное извлечение (доверие 8) [EE64C6A8]
Трек 22 точное извлечение (доверие 8) [47C11E85]

Все треки извлечены точно

Конец отчёта

[CUETools log; Date: 26.11.2018 13:39:56; Version: 2.1.4]
Pregap length 00:00:33.
[CTDB TOCID: wKqyZp8QmVhFH9g8qi_oGv8G9uY-] found.
Track | CTDB Status
1 | (54/95) Accurately ripped
2 | (54/95) Accurately ripped
3 | (54/95) Accurately ripped
4 | (54/95) Accurately ripped
5 | (54/95) Accurately ripped
6 | (54/95) Accurately ripped
7 | (54/95) Accurately ripped
8 | (54/95) Accurately ripped
9 | (54/95) Accurately ripped
10 | (54/95) Accurately ripped
11 | (54/95) Accurately ripped
12 | (54/95) Accurately ripped
13 | (54/95) Accurately ripped
14 | (54/95) Accurately ripped
15 | (54/95) Accurately ripped
16 | (54/95) Accurately ripped
17 | (54/95) Accurately ripped
18 | (53/95) Accurately ripped
19 | (54/95) Accurately ripped
20 | (54/95) Accurately ripped
21 | (54/95) Accurately ripped
22 | (54/95) Accurately ripped
[AccurateRip ID: 00270906-0274d1af-480bed16] found.
Track [ CRC | V2 ] Status
01 [5c8949c4|1c73ed8c] (022+018/105) Accurately ripped
02 [63be0f18|0fc022c7] (022+018/105) Accurately ripped
03 [10888ffe|af7630e9] (022+019/105) Accurately ripped
04 [96361d85|551d2d4f] (022+018/104) Accurately ripped
05 [0081eaff|7d2ddf78] (022+018/104) Accurately ripped
06 [a1cbc4f8|a1d5eb74] (022+018/104) Accurately ripped
07 [02bd2b56|699fdbe4] (022+018/104) Accurately ripped
08 [35c083a8|a8519383] (022+018/104) Accurately ripped
09 [e9173afc|0d628770] (022+019/104) Accurately ripped
10 [4c638c33|c28d731a] (022+018/104) Accurately ripped
11 [fd7fc399|b2d55101] (022+019/102) Accurately ripped
12 [43dcc5e5|4facafb7] (022+018/102) Accurately ripped
13 [432f903e|07b55164] (022+019/104) Accurately ripped
14 [5b149506|47bda631] (022+018/102) Accurately ripped
15 [1f45054f|73136c5b] (022+018/102) Accurately ripped
16 [9a899035|42991f8e] (022+018/102) Accurately ripped
17 [e3143743|fa7035b5] (022+018/101) Accurately ripped
18 [e3d3872d|24540a1d] (022+018/102) Accurately ripped
19 [76e6cf99|ec9e0fb9] (022+018/104) Accurately ripped
20 [42824b78|28a92d19] (022+019/102) Accurately ripped
21 [ee64c6a8|fa826c0a] (022+018/103) Accurately ripped
22 [47c11e85|41c78c8f] (022+018/103) Accurately ripped
Offsetted by -676:
01 [94235a48] (000/105) No match (V2 was not tested)
02 [180a5698] (000/105) No match (V2 was not tested)
03 [cdd9ff16] (000/105) No match (V2 was not tested)
04 [7f7eb1e5] (000/104) No match (V2 was not tested)
05 [c1c3321b] (000/104) No match (V2 was not tested)
06 [7b4d2634] (000/104) No match (V2 was not tested)
07 [42976f5a] (000/104) No match (V2 was not tested)
08 [dcb411f4] (000/104) No match (V2 was not tested)
09 [bbd44fdc] (000/104) No match (V2 was not tested)
10 [ee105a7b] (000/104) No match (V2 was not tested)
11 [82916b65] (000/102) No match (V2 was not tested)
12 [a95c72b5] (000/102) No match (V2 was not tested)
13 [8e9e4f7e] (000/104) No match (V2 was not tested)
14 [9d88a73a] (000/102) No match (V2 was not tested)
15 [7a6d2e77] (000/102) No match (V2 was not tested)
16 [f6d6001d] (000/102) No match (V2 was not tested)
17 [f35a54ef] (000/101) No match (V2 was not tested)
18 [21132159] (000/102) No match (V2 was not tested)
19 [e8221f11] (000/104) No match (V2 was not tested)
20 [26b3c57c] (000/102) No match (V2 was not tested)
21 [17e81068] (000/103) No match (V2 was not tested)
22 [5ce488a1] (000/103) No match (V2 was not tested)

Track Peak [ CRC32 ] [W/O NULL] [ LOG ]
– 100,0 [94981E6B] [2AE38E96] CRC32
01 85,2 [3AC3E305] [6F56E55C]
02 95,9 [8416056C] [97673025]
03 89,9 [A5F912A4] [48BD57CA]
04 92,1 [B0EE8AE1] [24028B3E]
05 97,7 [EA76E9AD] [6A149D84]
06 97,7 [A56EA8C1] [F968F519]
07 91,7 [267471DA] [99C72EE6]
08 86,3 [A7371170] [5C9C22DC]
09 93,0 [62506B1A] [A3F3DF82]
10 86,1 [501D0180] [8FF45F38]
11 93,6 [3B8A0F4D] [2077B5CF]
12 94,4 [8ADA278E] [08C0F766]
13 85,7 [0D663F21] [85B81DFA]
14 95,7 [0A64478A] [E129382F]
15 93,9 [D85FBBA6] [4D01F03C]
16 92,3 [E7BA8B67] [E6533CA7]
17 92,4 [8E1F8697] [5FB836E9]
18 94,3 [40F37C08] [C649746C]
19 88,9 [7E3851EC] [77AF06CE]
20 100,0 [6093CC4B] [A80532F6]
21 99,6 [C0E71532] [6BE539DC]
22 95,9 [BF14FC6D] [F22B2D1E]

Thanks to the original releaser

See also:
Nat King Cole - Just One Of Those Things (And More) (1957) [Reissue 1987]
The Nat King Cole Trio - The Best of the Nat King Cole Trio: The Vocal Classics (1947-50) (1996)
Nat "King" Cole - 1940-1941 (1994)
Nat King Cole Trio - Hit That Jive, Jack [Recorded 1936-1941] (1996)