Tags
Language
Tags

Natalie Cole - Everlasting (1987) [Japan] {Black Triangle CD} *Re-Up*

Posted By: BlondStyle
Natalie Cole - Everlasting (1987) [Japan] {Black Triangle CD} *Re-Up*

Natalie Cole - Everlasting (1987) [Japan] {Black Triangle CD}
R&B, Pop/Rock, Electronic | EAC Rip | FLAC, Img+CUE+LOG+Scans (PNG) | 54:33 Min | 737,52 Mb
Label: Toshiba-EMI Ltd. (Japan) | Cat.# CP32-5481 | Released: 1987-09-25 (1987-06-14)

"Everlasting" is a 1987 album by Natalie Cole. She returned to Capitol Records via Manhattan Records. This album is considered her commercial comeback. It was, by far, one of Natalie's most diverse set from the hot dance opus from the hot producing duo of the time, The Calloways, contributing, "Jump Start", the Top 3 R&B and Pop Top 10. The pure pop crossover cover of Bruce Springsteen's "Pink Cadillac" also hit the Hot 100 Top 10 and the pop/adult contemporary hit, "I Live For Your Love". These great singles were augmented by equally strong album cuts from as diverse a contributor to the above listed, Bacharach/David, "In My Reality" and "Split Decision" along with another great cover of "When I Fall in Love" bringing her another step closer to tapping into her father's era of the Great American Songbook. The album that many had longed for was just around the bend as this comeback of sorts, set the stage, and her career would never quite be the same.
~Wikipedia
Everlasting was one of Natalie Cole's best '80s albums. The title track was written and produced by the hit production duo of Jerry Knight and Aaron Zigman. Produced by Reginald and Vincent Calloway (Midnight Star), the number two R&B hit "Jump Start" is a slab of slammin' squishy funk, with some parts sounding like "No Parking on the Dance Floor." Burt Bacharach and Carole Bayer Sager contribute the smooth "Split Decision," and the lightly swinging "In My Reality." Cole gives one of her best performances, covering one of her famous father's classics on the Marcus Miller-produced "When I Fall in Love." She also skillfully covers Bruce Springsteen's "Pink Cadillac." Cole co-wrote and co-produced the light, samba-tinged "More Than the Stars," which is in the same vein as "La Costa," from Thankful.
~Review by Ed Hogan

Natalie Cole - Everlasting (1987) [Japan] {Black Triangle CD} *Re-Up*

Natalie Cole - Everlasting (1987) [Japan] {Black Triangle CD} *Re-Up*




Release of the album: 1987, June, 14 [LP Manhattan Records, Cat.# ST-53051, USA]
Release of this CD: 1987, September, 25 [CD Toshiba EMI Ltd. (Japan), Cat.# CP32-5481 / EAN: T4988006615762]
℗© 1987 Manhattan Records, a division of Capitol Records, Inc.
Manufactured by Toshiba EMI Ltd. in Japan

Note: AAD. Japanese 'Black Triangle' CD.

Credits:

Producers: PJerry Knight, Aaron Zigman (track 1), Reggie Calloway, Vincent Calloway (track 2), Dennis Lambert (tracks 3, 6 & 7), Burt Bacharach, Carole Bayer Sager (tracks 4 & 8), Marcus Miller (track 5), Reggie Calloway (track 9), Eddie Cole (track 10), Andy Goldmark, Bruce Roberts (track 11),
Executive producer: Gerry Griffith


Tracklist:

01. "Everlasting" (05:18)
(Jerry Knight / Aaron Zigman)
02. "Jump Start" (06:28)
(Reggie Calloway)
03. "The Urge To Merge" (04:11)
(Pam Reswick / Steve Werfel)
04. "Split Decision" (04:14)
(Burt Bacharach / Carole Bayer Sager)
05. "When I Fall In Love" (05:08)
(Edward Heyman / Victor Young)
06. "Pink Cadillac" (04:29)
(Bruce Springsteen)
07. "I Live For Your Love" (04:29)
(Pam Reswick / Allan Rich / Steve Werfel)
08. "In My Reality" (05:22)
(Burt Bacharach)
09. "I'm The One" (05:21)
(Reggie Calloway / Belinda Lipscomb)
10. "More Than The Stars" (04:39)
(Eddie Cole)
11. "What I Must Do" (04:54)
(Andy Goldmark / Bruce Roberts)

Exact Audio Copy V1.0 beta 3 from 29. August 2011

EAC extraction logfile from 17. January 2012, 0:39

Natalie Cole / Everlasting

Used drive : ATAPI DVD DW 8X16X8X16 Adapter: 0 ID: 2

Read mode : Secure
Utilize accurate stream : Yes
Defeat audio cache : Yes
Make use of C2 pointers : No

Read offset correction : 618
Overread into Lead-In and Lead-Out : No
Fill up missing offset samples with silence : Yes
Delete leading and trailing silent blocks : No
Null samples used in CRC calculations : Yes
Used interface : Native Win32 interface for Win NT & 2000

Used output format : Internal WAV Routines
Sample format : 44.100 Hz; 16 Bit; Stereo


TOC of the extracted CD

Track | Start | Length | Start sector | End sector
––––––––––––––––––––––––––––-
1 | 0:00.00 | 5:17.67 | 0 | 23841
2 | 5:17.67 | 6:28.18 | 23842 | 52959
3 | 11:46.10 | 4:10.52 | 52960 | 71761
4 | 15:56.62 | 4:14.20 | 71762 | 90831
5 | 20:11.07 | 5:08.05 | 90832 | 113936
6 | 25:19.12 | 4:28.68 | 113937 | 134104
7 | 29:48.05 | 4:28.57 | 134105 | 154261
8 | 34:16.62 | 5:21.73 | 154262 | 178409
9 | 39:38.60 | 5:21.22 | 178410 | 202506
10 | 45:00.07 | 4:38.48 | 202507 | 223404
11 | 49:38.55 | 4:54.35 | 223405 | 245489


Range status and errors

Selected range

Filename C:\BlondStyle\Natalie Cole - Everlasting.wav

Peak level 100.0 %
Extraction speed 8.3 X
Range quality 99.9 %
Test CRC 0BE4A90F
Copy CRC 0BE4A90F
Copy OK

No errors occurred


AccurateRip summary

Track 1 not present in database
Track 2 not present in database
Track 3 not present in database
Track 4 not present in database
Track 5 not present in database
Track 6 not present in database
Track 7 not present in database
Track 8 not present in database
Track 9 not present in database
Track 10 not present in database
Track 11 not present in database

None of the tracks are present in the AccurateRip database

End of status report

==== Log checksum FFC357277CC744268395475914A357EC8B37D93F64F7319D994BDEFD1CC45CDB ====

––––––––––––––––––––––––––––––––––––––––
Analyzed: Natalie Cole / Everlasting
––––––––––––––––––––––––––––––––––––––––

DR Peak RMS Duration Track
––––––––––––––––––––––––––––––––––––––––
DR14 0.00 dB -15.87 dB 5:18 01-Everlasting
DR14 -1.36 dB -17.14 dB 6:28 02-Jump Start
DR13 -0.77 dB -16.07 dB 4:11 03-The Urge To Merge
DR13 -1.95 dB -17.56 dB 4:14 04-Split Decision
DR12 -3.93 dB -18.68 dB 5:08 05-When I Fall In Love
DR13 -0.70 dB -16.00 dB 4:29 06-Pink Cadillac
DR12 -0.69 dB -16.05 dB 4:29 07-I Live For Your Love
DR15 0.00 dB -17.69 dB 5:22 08-In My Reality
DR14 -0.65 dB -18.33 dB 5:21 09-I'm The One
DR13 -0.70 dB -16.53 dB 4:39 10-More Than The Stars
DR14 0.00 dB -17.62 dB 4:54 11-What I Must Do
––––––––––––––––––––––––––––––––––––––––

Number of tracks: 11
Official DR value: DR13

Samplerate: 44100 Hz
Channels: 2
Bits per sample: 16
Bitrate: 877 kbps
Codec: FLAC
================================================================================

See also:


password: BlondStyle