Subcategories

Nathan Milstein - Johann Sebastian Bach: Sonatas & Partitas for Solo Violin, BWV 1001-1006 (2012) 2CDs

Posted By: Designol
Nathan Milstein - Johann Sebastian Bach: Sonatas & Partitas for Solo Violin, BWV 1001-1006 (2012) 2CDs

Nathan Milstein - J.S. Bach: Sonatas & Partitas for Solo Violin, BWV 1001-1006 (2012) 2CDs
EAC | FLAC | Image (Cue&Log) ~ 307 Mb | Mp3 (CBR320) ~ 162 Mb | Scans ~ 90 Mb
Genre: Classical | Label: EMI | # 50999 6 78741 2 5 | Time: 01:54:06

The late Nathan Milstein’s 1975 stereo remake (DG mid-price) was his own preferred version of these pillars of the violin repertoire with which he had been so associated since his youth in Odessa. But his (broadly faster) mid-Fifties New York account, now remastered and restored by EMI, was a famous yardstick of its time – a grandly phrased, aristocratically structured, Romantically resonant statement to treasure beside Menuhin and Heifetz. These are epic virtuoso performances justifying Milstein’s view that with this music the performer could ‘bask in the most glamorous light’. Stylistically, purists will object to their expressive liberty and gesture. But few will be able to resist their artistry or intensity of delivery.

Review by Ates Orga, Classical-Music.com

Milstein’s natural brilliance, intelligence, sensitivity to inflexion and feeling for structure mark these recordings as truly exceptional.

Review by Gramophone

Nathan Milstein - Johann Sebastian Bach: Sonatas & Partitas for Solo Violin, BWV 1001-1006 (2012) 2CDs



Nathan Milstein - Johann Sebastian Bach: Sonatas & Partitas for Solo Violin, BWV 1001-1006 (2012) 2CDs



Tracklist:

CD1:

01. Sonata No. 1 in g, BWV 1001, Adagio (04:21)
02. Sonata No. 1 in g, BWV 1001, Fuga (Allegro) (04:48)
03. Sonata No. 1 in g, BWV 1001, Siciliana (03:25)
04. Sonata No. 1 in g, BWV 1001, Presto (02:18)

05. Partita No. 1 in b, BWV 1002, Allemanda (04:17)
06. Partita No. 1 in b, BWV 1002, Double (01:50)
07. Partita No. 1 in b, BWV 1002, Corrente (02:13)
08. Partita No. 1 in b, BWV 1002, Double (Presto) (02:19)
09. Partita No. 1 in b, BWV 1002, Sarabande (02:11)
10. Partita No. 1 in b, BWV 1002, Double (01:48)
11. Partita No. 1 in b, BWV 1002, Bourree (02:15)
12. Partita No. 1 in b, BWV 1002, Double (01:54)

13. Sonata No. 2 in a, BWV 1003, Grave (04:09)
14. Sonata No. 2 in a, BWV 1003, Fuga (07:10)
15. Sonata No. 2 in a, BWV 1003, Andante (05:25)
16. Sonata No. 2 in a, BWV 1003, Allegro (03:56)

CD2:

01. Partita No. 2 in d, BWV 1004, 1. Allemanda (02:01)
02. Partita No. 2 in d, BWV 1004, 2. Corrente (01:33)
03. Partita No. 2 in d, BWV 1004, 3. Sarabanda (03:00)
04. Partita No. 2 in d, BWV 1004, 4. Giga (01:50)
05. Partita No. 2 in d, BWV 1004, 5. Chaccone (13:49)

06. Sonata No. 3 in C, BWV 1005, 1. Adagio (04:57)
07. Sonata No. 3 in C, BWV 1005, 2. Fuga (09:16)
08. Sonata No. 3 in C, BWV 1005, 3. Largo (03:44)
09. Sonata No. 3 in C, BWV 1005, 4. Allegro Assai (03:11)

10. Partita No. 3 in E, BWV 1006, 1. Preludio (03:11)
11. Partita No. 3 in E, BWV 1006, 2. Loure (03:28)
12. Partita No. 3 in E, BWV 1006, 3. Gavotte en Rondo (02:56)
13. Partita No. 3 in E, BWV 1006, 4. Menuet I (01:46)
14. Partita No. 3 in E, BWV 1006, 4. Menuet II (01:38)
15. Partita No. 3 in E, BWV 1006, 5. Bourree (01:30)
16. Partita No. 3 in E, BWV 1006, 6. Gigue (01:40)


Exact Audio Copy V1.0 beta 1 from 15. November 2010

EAC extraction logfile from 17. November 2012, 16:05

Nathan Milstein / J.S. Bach - Sonatas & Partitas for Unaccompanied Violin (CD1)

Used drive : ASUS DRW-22B2S Adapter: 4 ID: 1

Read mode : Secure
Utilize accurate stream : Yes
Defeat audio cache : Yes
Make use of C2 pointers : No

Read offset correction : 6
Overread into Lead-In and Lead-Out : No
Fill up missing offset samples with silence : Yes
Delete leading and trailing silent blocks : No
Null samples used in CRC calculations : Yes
Used interface : Native Win32 interface for Win NT & 2000

Used output format : Internal WAV Routines
Sample format : 44.100 Hz; 16 Bit; Stereo


TOC of the extracted CD

Track | Start | Length | Start sector | End sector
––––––––––––––––––––––––––––-
1 | 0:00.00 | 4:21.37 | 0 | 19611
2 | 4:21.37 | 4:48.45 | 19612 | 41256
3 | 9:10.07 | 3:25.43 | 41257 | 56674
4 | 12:35.50 | 2:18.65 | 56675 | 67089
5 | 14:54.40 | 4:17.51 | 67090 | 86415
6 | 19:12.16 | 1:50.24 | 86416 | 94689
7 | 21:02.40 | 2:13.41 | 94690 | 104705
8 | 23:16.06 | 2:19.15 | 104706 | 115145
9 | 25:35.21 | 2:11.41 | 115146 | 125011
10 | 27:46.62 | 1:48.71 | 125012 | 133182
11 | 29:35.58 | 2:15.46 | 133183 | 143353
12 | 31:51.29 | 1:54.01 | 143354 | 151904
13 | 33:45.30 | 4:09.71 | 151905 | 170650
14 | 37:55.26 | 7:10.09 | 170651 | 202909
15 | 45:05.35 | 5:25.35 | 202910 | 227319
16 | 50:30.70 | 3:56.31 | 227320 | 245050


Range status and errors

Selected range

Filename E:\YES ! We Speak Lossless @ ThailandTorrent\Nathan Milstein - J.S. Bach - Sonatas & Partitas for Unaccompanied Violin (CD1).wav

Peak level 100.0 %
Extraction speed 0.4 X
Range quality 100.0 %
Test CRC 1FB3C655
Copy CRC 1FB3C655
Copy OK

No errors occurred


AccurateRip summary

Track 1 not present in database
Track 2 not present in database
Track 3 not present in database
Track 4 not present in database
Track 5 not present in database
Track 6 not present in database
Track 7 not present in database
Track 8 not present in database
Track 9 not present in database
Track 10 not present in database
Track 11 not present in database
Track 12 not present in database
Track 13 not present in database
Track 14 not present in database
Track 15 not present in database
Track 16 not present in database

None of the tracks are present in the AccurateRip database

End of status report

==== Log checksum B139B619290496AD9D9269A1081F8EFA05507A5027802D634C8C4E34514DE423 ====

foobar2000 1.3.8 / Dynamic Range Meter 1.1.1
log date: 2015-11-26 20:08:19

––––––––––––––––––––––––––––––––––––––––
Analyzed: Nathan Milstein / J.S. Bach - Sonatas & Partitas for Unaccompanied Violin (CD1)
––––––––––––––––––––––––––––––––––––––––

DR Peak RMS Duration Track
––––––––––––––––––––––––––––––––––––––––
DR14 -7.09 dB -24.81 dB 4:21 01-Sonata No. 1 in g, BWV 1001, Adagio
DR13 -2.20 dB -18.98 dB 4:49 02-Sonata No. 1 in g, BWV 1001, Fuga (Allegro)
DR10 -8.40 dB -22.33 dB 3:26 03-Sonata No. 1 in g, BWV 1001, Siciliana
DR13 -3.03 dB -23.25 dB 2:19 04-Sonata No. 1 in g, BWV 1001, Presto
DR12 -5.02 dB -21.03 dB 4:18 05-Partita No. 1 in b, BWV 1002, Allemanda
DR12 -7.28 dB -22.10 dB 1:50 06-Partita No. 1 in b, BWV 1002, Double
DR12 -6.42 dB -21.66 dB 2:14 07-Partita No. 1 in b, BWV 1002, Corrente
DR13 -6.98 dB -22.79 dB 2:19 08-Partita No. 1 in b, BWV 1002, Double (Presto)
DR10 -5.22 dB -21.31 dB 2:12 09-Partita No. 1 in b, BWV 1002, Sarabande
DR11 -7.47 dB -22.78 dB 1:49 10-Partita No. 1 in b, BWV 1002, Double
DR14 -2.29 dB -18.87 dB 2:16 11-Partita No. 1 in b, BWV 1002, Bourree
DR11 -7.17 dB -22.13 dB 1:54 12-Partita No. 1 in b, BWV 1002, Double
DR11 -7.27 dB -21.73 dB 4:10 13-Sonata No. 2 in a, BWV 1003, Grave
DR13 0.00 dB -17.80 dB 7:10 14-Sonata No. 2 in a, BWV 1003, Fuga
DR11 -8.33 dB -23.07 dB 5:25 15-Sonata No. 2 in a, BWV 1003, Andante
DR13 -4.01 dB -20.65 dB 3:56 16-Sonata No. 2 in a, BWV 1003, Allegro
––––––––––––––––––––––––––––––––––––––––

Number of tracks: 16
Official DR value: DR12

Samplerate: 44100 Hz
Channels: 2
Bits per sample: 16
Bitrate: 364 kbps
Codec: FLAC
================================================================================


Exact Audio Copy V1.0 beta 1 from 15. November 2010

EAC extraction logfile from 17. November 2012, 16:48

Nathan Milstein / J.S. Bach - Sonatas & Partitas for Unaccompanied Violin (CD2)

Used drive : ASUS DRW-22B2S Adapter: 4 ID: 1

Read mode : Secure
Utilize accurate stream : Yes
Defeat audio cache : Yes
Make use of C2 pointers : No

Read offset correction : 6
Overread into Lead-In and Lead-Out : No
Fill up missing offset samples with silence : Yes
Delete leading and trailing silent blocks : No
Null samples used in CRC calculations : Yes
Used interface : Native Win32 interface for Win NT & 2000

Used output format : Internal WAV Routines
Sample format : 44.100 Hz; 16 Bit; Stereo


TOC of the extracted CD

Track | Start | Length | Start sector | End sector
––––––––––––––––––––––––––––-
1 | 0:00.00 | 2:01.61 | 0 | 9135
2 | 2:01.61 | 1:33.40 | 9136 | 16150
3 | 3:35.26 | 3:00.45 | 16151 | 29695
4 | 6:35.71 | 1:50.00 | 29696 | 37945
5 | 8:25.71 | 13:49.04 | 37946 | 100124
6 | 22:15.00 | 4:57.00 | 100125 | 122399
7 | 27:12.00 | 9:16.56 | 122400 | 164155
8 | 36:28.56 | 3:44.19 | 164156 | 180974
9 | 40:13.00 | 3:11.50 | 180975 | 195349
10 | 43:24.50 | 3:11.68 | 195350 | 209742
11 | 46:36.43 | 3:28.72 | 209743 | 225414
12 | 50:05.40 | 2:56.54 | 225415 | 238668
13 | 53:02.19 | 1:46.70 | 238669 | 246688
14 | 54:49.14 | 1:38.69 | 246689 | 254107
15 | 56:28.08 | 1:30.34 | 254108 | 260891
16 | 57:58.42 | 1:40.59 | 260892 | 268450


Range status and errors

Selected range

Filename E:\YES ! We Speak Lossless @ ThailandTorrent\Nathan Milstein - J.S. Bach - Sonatas & Partitas for Unaccompanied Violin (CD2).wav

Peak level 83.5 %
Extraction speed 0.0 X
Range quality 100.0 %
Test CRC CD585FC0
Copy CRC CD585FC0
Copy OK

No errors occurred


AccurateRip summary

Track 1 not present in database
Track 2 not present in database
Track 3 not present in database
Track 4 not present in database
Track 5 not present in database
Track 6 not present in database
Track 7 not present in database
Track 8 not present in database
Track 9 not present in database
Track 10 not present in database
Track 11 not present in database
Track 12 not present in database
Track 13 not present in database
Track 14 not present in database
Track 15 not present in database
Track 16 not present in database

None of the tracks are present in the AccurateRip database

End of status report

==== Log checksum B30E7CAC86FFD917427CECC60C4FB16C2D2FBEB8978ABAD3072A12718CE4CDA9 ====

foobar2000 1.3.8 / Dynamic Range Meter 1.1.1
log date: 2015-11-26 20:09:04

––––––––––––––––––––––––––––––––––––––––
Analyzed: Nathan Milstein / J.S. Bach - Sonatas & Partitas for Unaccompanied Violin (CD2)
––––––––––––––––––––––––––––––––––––––––

DR Peak RMS Duration Track
––––––––––––––––––––––––––––––––––––––––
DR11 -4.14 dB -18.54 dB 2:02 01-Partita No. 2 in d, BWV 1004, 1. Allemanda
DR11 -5.02 dB -19.61 dB 1:34 02-Partita No. 2 in d, BWV 1004, 2. Corrente
DR12 -4.66 dB -20.29 dB 3:01 03-Partita No. 2 in d, BWV 1004, 3. Sarabanda
DR13 -3.77 dB -20.40 dB 1:50 04-Partita No. 2 in d, BWV 1004, 4. Giga
DR14 -1.86 dB -20.33 dB 13:49 05-Partita No. 2 in d, BWV 1004, 5. Chaccone
DR13 -4.95 dB -22.91 dB 4:57 06-Sonata No. 3 in C, BWV 1005, 1. Adagio
DR12 -2.08 dB -16.78 dB 9:17 07-Sonata No. 3 in C, BWV 1005, 2. Fuga
DR12 -7.75 dB -24.74 dB 3:44 08-Sonata No. 3 in C, BWV 1005, 3. Largo
DR12 -4.68 dB -21.05 dB 3:12 09-Sonata No. 3 in C, BWV 1005, 4. Allegro Assai
DR12 -1.57 dB -17.69 dB 3:12 10-Partita No. 3 in E, BWV 1006, 1. Preludio
DR12 -6.67 dB -22.21 dB 3:29 11-Partita No. 3 in E, BWV 1006, 2. Loure
DR13 -4.44 dB -20.16 dB 2:57 12-Partita No. 3 in E, BWV 1006, 3. Gavotte en Rondo
DR12 -4.27 dB -19.38 dB 1:47 13-Partita No. 3 in E, BWV 1006, 4. Menuet I
DR11 -8.07 dB -21.84 dB 1:39 14-Partita No. 3 in E, BWV 1006, 4. Menuet II
DR11 -3.22 dB -18.24 dB 1:30 15-Partita No. 3 in E, BWV 1006, 5. Bourree
DR12 -6.69 dB -22.29 dB 1:41 16-Partita No. 3 in E, BWV 1006, 6. Gigue
––––––––––––––––––––––––––––––––––––––––

Number of tracks: 16
Official DR value: DR12

Samplerate: 44100 Hz
Channels: 2
Bits per sample: 16
Bitrate: 386 kbps
Codec: FLAC
================================================================================

Nathan Milstein - Johann Sebastian Bach: Sonatas & Partitas for Solo Violin, BWV 1001-1006 (2012) 2CDs

Nathan Milstein - Johann Sebastian Bach: Sonatas & Partitas for Solo Violin, BWV 1001-1006 (2012) 2CDs

All thanks to original releaser - yo0507

More interesting music in My Blog