Tags
Language
Tags

Neil Young - Young Shakespeare (Live) (2021)

Posted By: SERTiL
Neil Young - Young Shakespeare (Live) (2021)

Neil Young - Young Shakespeare (Live) (2021)
EAC Rip | FLAC (tracks+log+.cue) - 254 Mb | 50:25
Folk Rock, Singer-Songwriter | Label: Reprise Records / 093624889564

Just two months after the release of his seminal After the Gold Rush, Neil Young sat down for a performance at The Shakespeare Theater on January 22, 1971. The Stratford, CT show captures the artist stripped down to the bare essentials—acoustic guitar, piano, and harmonica.

The concert was recorded for presentation on German TV later that year but was not publicly available until now. The original 50 year-old analog tapes have been lovingly restored, making available early acoustic recordings of two After the Gold Rush songs, early Harvest tunes, and beloved favorites such as “Ohio,” “Cowgirl in the Sand,” “Helpless,” “Down by the River,” and “Sugar Mountain.”



Tracklist:
1. Tell Me Why (Live) (2:37)
2. Old Man (Live) (4:09)
3. The Needle and the Damage Done (Live) (3:48)
4. Ohio (Live) (3:02)
5. Dance Dance Dance (Live) (2:26)
6. Cowgirl in the Sand (Live) (4:21)
7. A Man Needs a Maid/Heart of Gold (Medley) (Live) (6:56)
8. Journey Through the Past (Live) (3:34)
9. Don't Let it Bring You Down (Live) (2:57)
10. Helpless (Live) (3:50)
11. Down by the River (Live) (4:12)
12. Sugar Mountain (Live) (8:40)

Exact Audio Copy V1.0 beta 3 from 29. August 2011

EAC extraction logfile from 28. March 2021, 17:32

Neil Young / Young Shakespeare

Used drive : PIONEER BD-RW BDR-206 Adapter: 0 ID: 0

Read mode : Secure
Utilize accurate stream : Yes
Defeat audio cache : Yes
Make use of C2 pointers : No

Read offset correction : 667
Overread into Lead-In and Lead-Out : No
Fill up missing offset samples with silence : Yes
Delete leading and trailing silent blocks : No
Null samples used in CRC calculations : Yes
Used interface : Native Win32 interface for Win NT & 2000
Gap handling : Appended to previous track

Used output format : User Defined Encoder
Selected bitrate : 1024 kBit/s
Quality : High
Add ID3 tag : No
Command line compressor : C:\Program Files (x86)\Exact Audio Copy\Flac\flac.exe
Additional command line options : -8 -V -T "ARTIST=%artist%" -T "TITLE=%title%" -T "ALBUM=%albumtitle%" -T "DATE=%year%" -T "TRACKNUMBER=%tracknr%" -T "GENRE=%genre%" -T "PERFORMER=%albuminterpret%" -T "COMPOSER=%composer%" %haslyrics%–tag-from-file=LYRICS="%lyricsfile%"%haslyrics% -T "ALBUMARTIST=%albumartist%" -T "DISCNUMBER=%cdnumber%" -T "TOTALDISCS=%totalcds%" -T "TOTALTRACKS=%numtracks%" -T "COMMENT=%comment%" %source% -o %dest%


TOC of the extracted CD

Track | Start | Length | Start sector | End sector
––––––––––––––––––––––––––––-
1 | 0:00.00 | 2:36.70 | 0 | 11769
2 | 2:36.70 | 4:08.56 | 11770 | 30425
3 | 6:45.51 | 3:47.43 | 30426 | 47493
4 | 10:33.19 | 3:02.34 | 47494 | 61177
5 | 13:35.53 | 2:26.14 | 61178 | 72141
6 | 16:01.67 | 4:21.29 | 72142 | 91745
7 | 20:23.21 | 6:55.47 | 91746 | 122917
8 | 27:18.68 | 3:34.15 | 122918 | 138982
9 | 30:53.08 | 2:56.38 | 138983 | 152220
10 | 33:49.46 | 3:49.69 | 152221 | 169464
11 | 37:39.40 | 4:11.38 | 169465 | 188327
12 | 41:51.03 | 8:40.04 | 188328 | 227331


Track 1

Filename E:\EAC\Neil Young - Young Shakespeare (2021) [CD-FLAC]\01 - Tell Me Why.wav

Pre-gap length 0:00:02.00

Peak level 99.4 %
Extraction speed 0.9 X
Track quality 100.0 %
Test CRC D38D6758
Copy CRC D38D6758
Track not present in AccurateRip database
Copy OK

Track 2

Filename E:\EAC\Neil Young - Young Shakespeare (2021) [CD-FLAC]\02 - Old Man.wav

Peak level 100.0 %
Extraction speed 1.1 X
Track quality 100.0 %
Test CRC 9F2A52B7
Copy CRC 9F2A52B7
Track not present in AccurateRip database
Copy OK

Track 3

Filename E:\EAC\Neil Young - Young Shakespeare (2021) [CD-FLAC]\03 - The Needle and the Damage Done.wav

Peak level 79.6 %
Extraction speed 1.2 X
Track quality 100.0 %
Test CRC 561878A9
Copy CRC 561878A9
Track not present in AccurateRip database
Copy OK

Track 4

Filename E:\EAC\Neil Young - Young Shakespeare (2021) [CD-FLAC]\04 - Ohio.wav

Peak level 99.4 %
Extraction speed 1.3 X
Track quality 100.0 %
Test CRC 96AD12D6
Copy CRC 96AD12D6
Track not present in AccurateRip database
Copy OK

Track 5

Filename E:\EAC\Neil Young - Young Shakespeare (2021) [CD-FLAC]\05 - Dance Dance Dance.wav

Peak level 99.2 %
Extraction speed 1.3 X
Track quality 100.0 %
Test CRC 05058232
Copy CRC 05058232
Track not present in AccurateRip database
Copy OK

Track 6

Filename E:\EAC\Neil Young - Young Shakespeare (2021) [CD-FLAC]\06 - Cowgirl in ihe Sand.wav

Peak level 100.0 %
Extraction speed 1.5 X
Track quality 100.0 %
Test CRC FB8F8B25
Copy CRC FB8F8B25
Track not present in AccurateRip database
Copy OK

Track 7

Filename E:\EAC\Neil Young - Young Shakespeare (2021) [CD-FLAC]\07 - A Man Needs a Maid,Heart of Gold (Medley).wav

Peak level 100.0 %
Extraction speed 1.5 X
Track quality 99.9 %
Test CRC 093D7DA4
Copy CRC 093D7DA4
Track not present in AccurateRip database
Copy OK

Track 8

Filename E:\EAC\Neil Young - Young Shakespeare (2021) [CD-FLAC]\08 - Journey Through the Past.wav

Peak level 100.0 %
Extraction speed 1.6 X
Track quality 100.0 %
Test CRC 9FEC0655
Copy CRC 9FEC0655
Track not present in AccurateRip database
Copy OK

Track 9

Filename E:\EAC\Neil Young - Young Shakespeare (2021) [CD-FLAC]\09 - Don't Let It Bring You Down.wav

Peak level 100.0 %
Extraction speed 1.6 X
Track quality 100.0 %
Test CRC 1848EEA5
Copy CRC 1848EEA5
Track not present in AccurateRip database
Copy OK

Track 10

Filename E:\EAC\Neil Young - Young Shakespeare (2021) [CD-FLAC]\10 - Helpless.wav

Peak level 93.2 %
Extraction speed 1.8 X
Track quality 100.0 %
Test CRC 075886A0
Copy CRC 075886A0
Track not present in AccurateRip database
Copy OK

Track 11

Filename E:\EAC\Neil Young - Young Shakespeare (2021) [CD-FLAC]\11 - Down by the River.wav

Peak level 99.4 %
Extraction speed 1.8 X
Track quality 100.0 %
Test CRC FA001EF6
Copy CRC FA001EF6
Track not present in AccurateRip database
Copy OK

Track 12

Filename E:\EAC\Neil Young - Young Shakespeare (2021) [CD-FLAC]\12 - Sugar Mountain.wav

Peak level 93.7 %
Extraction speed 2.1 X
Track quality 100.0 %
Test CRC D2E695CF
Copy CRC D2E695CF
Track not present in AccurateRip database
Copy OK


None of the tracks are present in the AccurateRip database

No errors occurred

End of status report

==== Log checksum D0201D74FE8EFBDA1541D84CBC0ABD5DCF7D25B9041B57239E3DDD48EC05848A ====


Thanks to the Original customer.