Tags
Language
Tags

New Order - (the rest of) New Order (1995)

Posted By:
New Order - (the rest of) New Order (1995)

New Order - (the rest of) New Order (1995)
EAC | FLAC | Image (Cue&Log) ~ 535 Mb | Mp3 (CBR320) ~ 196 Mb | Scans included
Electronic, House, Alternative Dance-Rock | Label: London | # 8286572 | 01:19:55

1995 compilation, the remix companion to their 1994 collection the Best of New Order. Rest of features updated mixes of 10 of their finest from both the '80s and '90s. Tracks include 'Blue Monday' (Hardfloor Mix), 'True Faith' (Shep Pettibone Remix), 'Touched By the Hand of God' (Biff & Memphis Remix), 'Bizarre Love Triangle' (Armand Van Helden Mix), 'Ruined in a Day' (K-Klass Remix), 'Regret' (Fire Island Mix), 'Age of Consent' (Howie B. Remix) and 'Spooky' (Magimix).

New Order - (the rest of) New Order (1995)



Tracklist:

01. World (Perfecto Mix) (7:27)
02. Blue Monday (Hardfloor Remix) (8:35)
03. True Faith (Shep Pettibone Remix) (9:02)
04. Confusion (Pump Panel Reconstruction Mix) (10:11)
05. Touched By The Hand Of God (Biff & Memphis Remix) (10:00)
06. Bizarre Love Triangle (Armand Van Helden Mix) (8:59)
07. Ruined In A Day (K-Klass Remix) (6:13)
08. Regret (Fire Island Mix) (7:07)
09. Age Of Consent (Howie B. Remix) (5:23)
10. Spooky (Magimix) (6:54)


Exact Audio Copy V1.0 beta 3 from 29. August 2011

Отчёт EAC об извлечении, выполненном 24. мая 2017, 19:08

New Order / (The Rest Of) New Order

Дисковод: HL-DT-STDVDRAM GH24NSB0 Adapter: 0 ID: 0

Режим чтения : Достоверность
Использование точного потока : Да
Отключение кэша аудио : Да
Использование указателей C2 : Нет

Коррекция смещения при чтении : 6
Способность читать области Lead-in и Lead-out : Нет
Заполнение пропущенных сэмплов тишиной : Да
Удаление блоков с тишиной в начале и конце : Нет
При вычислениях CRC использовались нулевые сэмплы : Да
Интерфейс : Встроенный Win32-интерфейс для Win NT/2000

Выходной формат : Пользовательский кодировщик
Выбранный битрейт : 128 kBit/s
Качество : Высокий
Добавление ID3-тега : Нет
Утилита сжатия : C:\Program Files (x86)\Exact Audio Copy\Flac\flac.exe
Дополнительные параметры : -V -8 -T "Date=%year%" -T "Genre=%genre%" %source%


TOC извлечённого CD

Трек | Старт | Длительность | Начальный сектор | Конечный сектор
––––––––––––––––––––––––––––––––––-
1 | 0:00.00 | 7:27.12 | 0 | 33536
2 | 7:27.12 | 8:35.18 | 33537 | 72179
3 | 16:02.30 | 9:02.37 | 72180 | 112866
4 | 25:04.67 | 10:11.70 | 112867 | 158761
5 | 35:16.62 | 10:00.00 | 158762 | 203761
6 | 45:16.62 | 8:59.15 | 203762 | 244201
7 | 54:16.02 | 6:13.33 | 244202 | 272209
8 | 60:29.35 | 7:07.45 | 272210 | 304279
9 | 67:37.05 | 5:23.15 | 304280 | 328519
10 | 73:00.20 | 6:54.72 | 328520 | 359641


Характеристики диапазона извлечения и сообщения об ошибках

Выбранный диапазон

Имя файла C:\Users\blackriver\Desktop\no\New Order - (The Rest Of) New Order.wav

Пиковый уровень 100.0 %
Скорость извлечения 2.1 X
Качество диапазона 100.0 %
CRC теста 2C27EA70
CRC копии 2C27EA70
Копирование… OK

Ошибок не произошло


AccurateRip: сводка

Трек 1 : извлечено точно (доверие 4) [4AFF0485] (AR v2)
Трек 2 : извлечено точно (доверие 4) [FFBB4AFD] (AR v2)
Трек 3 : извлечено точно (доверие 4) [FDA8EE24] (AR v2)
Трек 4 : извлечено точно (доверие 4) [B2E5B7DF] (AR v2)
Трек 5 : извлечено точно (доверие 4) [2EFADAAF] (AR v2)
Трек 6 : извлечено точно (доверие 4) [8E2B37BC] (AR v2)
Трек 7 : извлечено точно (доверие 4) [A0A6E526] (AR v2)
Трек 8 : извлечено точно (доверие 4) [823CD98E] (AR v2)
Трек 9 : извлечено точно (доверие 4) [2247138C] (AR v2)
Трек 10 : извлечено точно (доверие 4) [10901DB7] (AR v2)

Все треки извлечены точно

Конец отчёта

==== Контрольная сумма отчёта A5EF2183B8628456E80481C9758F356C8EA6A501F5675A54754ED6D28B38D838 ====

foobar2000 1.2 / Dynamic Range Meter 1.1.1
log date: 2017-05-25 17:07:09

––––––––––––––––––––––––––––––––––––––––
Analyzed: New Order / (The Rest Of) New Order
––––––––––––––––––––––––––––––––––––––––

DR Peak RMS Duration Track
––––––––––––––––––––––––––––––––––––––––
DR12 0.00 dB -13.33 dB 7:27 01-World (Perfecto Mix)
DR11 0.00 dB -12.70 dB 8:35 02-Blue Monday (Hardfloor Mix)
DR11 0.00 dB -12.74 dB 9:02 03-True Faith (Shep Pettibone Remix)
DR4 -5.69 dB -10.93 dB 10:12 04-Confusion (Pump Panel Reconstruction Mix)
DR13 -0.04 dB -15.42 dB 10:00 05-Touched by the Hand of God (Biff & Memphis Remix)
DR12 0.00 dB -13.98 dB 8:59 06-Bizarre Love Triangle (Armand Van Helden Mix)
DR12 -0.09 dB -13.86 dB 6:13 07-Ruined in a Day (K-Klass Remix)
DR14 -0.03 dB -15.25 dB 7:08 08-Regret (Fire Island Mix)
DR13 0.00 dB -15.31 dB 5:23 09-Age of Consent (Howie B. Remix)
DR12 -0.50 dB -13.66 dB 6:55 10-Spooky (Magimix)
––––––––––––––––––––––––––––––––––––––––

Number of tracks: 10
Official DR value: DR11

Samplerate: 44100 Hz
Channels: 2
Bits per sample: 16
Bitrate: 912 kbps
Codec: FLAC
================================================================================

New Order - (the rest of) New Order (1995)

New Order - (the rest of) New Order (1995)

All thanks to original releaser - recoil-PREDATOR

More interesting music in My Blog