Tags
Language
Tags

Zsolt Kalló, Nicholas McGegan, Capella Savaria - Felix Mendelssohn: Violin Concerto; Symphony No. 4 'Italian' (2013)

Posted By: ArlegZ
Zsolt Kalló, Nicholas McGegan, Capella Savaria - Felix Mendelssohn: Violin Concerto; Symphony No. 4 'Italian' (2013)

Zsolt Kalló, Nicholas McGegan, Capella Savaria - Felix Mendelssohn: Violin Concerto in E minor, Op. 64; Symphony No. 4 in A major, Op. 90 'Italian' (2013)
EAC | FLAC | Image (Cue & Log) ~ 273 Mb | Total time: 56:03 | Scans included
Classical | Label: Centaur | # CRC 3287 | Recorded: 2012

This album features the seldom-played Second Version of the Italian Symphony, and the seldom-played first version of the Violin Concerto. Both are played by the superb early music chamber orchestra, Capella Savaria, conducted by Nicholas McGegan. Zsolt Kalló is the superb violin soloist.

Performer:
Zsolt Kalló, violin
Capella Savaria
Nicholas McGegan, conductor

Track List:
Violin Concerto in E minor, Op. 64 (First Version 1844)
01. 1. Allegro con fuoco
02. 2. Andante
03. 3. Allegretto non troppo - Allegro molto vivace
Symphony No. 4 in A major, Op. 90 "Italian" (Second version 1834)
04. 1. Allegro vivace
05. 2. Andante con moto
06. 3. Menuetto, Con moto grazioso
07. 4. Saltarello, Allegro di molto


Exact Audio Copy V1.3 from 2. September 2016

EAC extraction logfile from 4. May 2018, 1:40

Mendelssohn / Violin Concerto, Italian Symphony - Capella Savaria, McGegan

Used drive : HL-DT-STDVD-RAM GSA-H58N Adapter: 0 ID: 1

Read mode : Secure
Utilize accurate stream : Yes
Defeat audio cache : No
Make use of C2 pointers : No

Read offset correction : 102
Overread into Lead-In and Lead-Out : No
Fill up missing offset samples with silence : Yes
Delete leading and trailing silent blocks : No
Null samples used in CRC calculations : Yes
Used interface : Installed external ASPI interface

Used output format : User Defined Encoder
Selected bitrate : 896 kBit/s
Quality : High
Add ID3 tag : No
Command line compressor : C:\Program Files\Exact Audio Copy\flac.exe
Additional command line options : -8 -V -T "ARTIST=%artist%" -T "TITLE=%title%" -T "ALBUM=%albumtitle%" -T "DATE=%year%" -T "TRACKNUMBER=%tracknr%" -T "GENRE=%genre%" -T "COMMENT=%comment%" -T "BAND=%albuminterpret%" -T "ALBUMARTIST=%albuminterpret%" -T "COMPOSER=%composer%" %haslyrics%–tag-from-file=LYRICS="%lyricsfile%"%haslyrics% -T "DISCNUMBER=%cdnumber%" -T "TOTALDISCS=%totalcds%" -T "TOTALTRACKS=%numtracks%" %hascover%–picture="%coverfile%"%hascover% %source% -o %dest%


TOC of the extracted CD

Track | Start | Length | Start sector | End sector
––––––––––––––––––––––––––––-
1 | 0:00.00 | 12:21.42 | 0 | 55616
2 | 12:21.42 | 6:49.23 | 55617 | 86314
3 | 19:10.65 | 6:15.71 | 86315 | 114510
4 | 25:26.61 | 10:26.26 | 114511 | 161486
5 | 35:53.12 | 6:06.11 | 161487 | 188947
6 | 41:59.23 | 7:30.41 | 188948 | 222738
7 | 49:29.64 | 6:34.08 | 222739 | 252296


Range status and errors

Selected range

Filename D:\Music\Mendelssohn - McGegan\Mendelssohn - Violin Concerto, Italian Symphony - Capella Savaria, McGegan.wav

Peak level 100.0 %
Extraction speed 3.9 X
Range quality 99.9 %
Copy CRC 3D16873A
Copy OK

No errors occurred


AccurateRip summary

Track 1 not present in database
Track 2 not present in database
Track 3 not present in database
Track 4 not present in database
Track 5 not present in database
Track 6 not present in database
Track 7 not present in database

None of the tracks are present in the AccurateRip database

End of status report

Zsolt Kalló, Nicholas McGegan, Capella Savaria - Felix Mendelssohn: Violin Concerto; Symphony No. 4 'Italian' (2013)

Thanks to the original releaser