Subcategories

Nik Kershaw - Anthology (1995)

Posted By: BlondStyle
Nik Kershaw - Anthology (1995)

Nik Kershaw - Anthology (1995)
Pop/Rock, Electronic, Synth-pop | XLD Rip | FLAC, Img+CUE+LOG+Scans (JPEG) | 62:56 Min. | 431,06 Mb
Label: One Way Records / MCA Special Products (USA) | Cat.# MCAD-22156 | Released: 1995-01-31

Nik Kershaw's albums have always been somewhat spotty, which is what makes Anthology a welcome event. By concentrating only on the singer's best material and biggest hits, the disc is an entertaining listen and arguably the only album most casual fans will ever need.
~Review by Sara Sytsma

Nik Kershaw - Anthology (1995)

Nik Kershaw - Anthology (1995)


Release of this CD: 1995, January, 31 [CD One Way Records/MCA Special Products (USA), Cat.# MCAD-22156 / UPC: 076732215623]
℗ 1985, 1984, 1983 © 1985, 1984 MCA Records, Inc.
Distributed by Uni Distribution Corp.
Printed in USA


Credits:

Backing Vocals – Don Snow, Lynda Hayes, Sheri Kershaw
Bass – Dennis Smith, Mark King, Paul Westwood
Compiled By – Terry Wachsmuth
Drums – Charlie Morgan
Horns – Bill Reichenbach, Dave Land, Cary Grant, Jerry Jey, Kim Hutchcroft, Larry Williams, Stuart Curtis
Keyboards – Andy Richards, Don Snow, Nick Glennie-Smith, Reg Webb, Tim Moore, Wix
Percussion – Martin Ditcham, Pundit Dinesh
Producer – Peter Collins
Vocals, Guitar, Bass, Keyboards, Percussion – Nik Kershaw
Written-By – Nik Kershaw


Tracklist:

01. Dancing Girls (03:47)
02. Wouldn't It Be Good (04:33)
03. Drum Talk (03:12)
04. Bogart (04:39)
05. Gone To Pieces (03:12)
06. Shame On You (03:37)
07. Cloak And Dagger (04:57)
08. Faces (04:05)
09. I Won't Let The Sun Go Down On Me (03:24)
10. Human Racing (04:30)
11. The Riddle (03:54)
12. Don Quixote (04:56)
13. Easy (04:15)
14. Wild Horses (04:00)
15. Save The Whale (05:57)

X Lossless Decoder version 20091225 (115.1)

XLD extraction logfile from 2009-12-28 11:20:31 +0600

Nik Kershaw / Anthology

Used drive : MATSHITA DVD-R UJ-868 (revision KA14)

Use cdparanoia mode : YES (CDParanoia III 10.2 engine)
Disable audio cache : OK for the drive with cache less than 2750KB
Make use of C2 pointers : NO
Read offset correction : 102
Max retry count : 100

TOC of the extracted CD
Track | Start | Length | Start sector | End sector
––––––––––––––––––––––––––––-
1 | 00:00:00 | 03:46:57 | 0 | 17006
2 | 03:46:57 | 04:32:53 | 17007 | 37459
3 | 08:19:35 | 03:11:40 | 37460 | 51824
4 | 11:31:00 | 04:39:15 | 51825 | 72764
5 | 16:10:15 | 03:11:57 | 72765 | 87146
6 | 19:21:72 | 03:36:48 | 87147 | 103394
7 | 22:58:45 | 04:57:30 | 103395 | 125699
8 | 27:56:00 | 04:04:67 | 125700 | 144066
9 | 32:00:67 | 03:23:70 | 144067 | 159361
10 | 35:24:62 | 04:29:43 | 159362 | 179579
11 | 39:54:30 | 03:54:25 | 179580 | 197154
12 | 43:48:55 | 04:56:00 | 197155 | 219354
13 | 48:44:55 | 04:14:42 | 219355 | 238446
14 | 52:59:22 | 03:59:43 | 238447 | 256414
15 | 56:58:65 | 05:56:67 | 256415 | 283181


All Tracks
Filename : /Users/Yuriy/Desktop/Nik Kershaw-Best/Anthology.flac
CRC32 hash : D79E7892
CRC32 hash (skip zero) : D3328656
Statistics
Read error : 0
Skipped (treated as error) : 0
Edge jitter error (maybe fixed) : 0
Atom jitter error (maybe fixed) : 0
Drift error (maybe fixed) : 0
Dropped bytes error (maybe fixed) : 0
Duplicated bytes error (maybe fixed) : 0

Track 01

Pre-gap length : 00:02:00

CRC32 hash : EC11B832
CRC32 hash (skip zero) : 8C90F0CC
AccurateRip signature : F38DFD0D
->Accurately ripped! (confidence 1)
Statistics
Read error : 0
Skipped (treated as error) : 0
Edge jitter error (maybe fixed) : 0
Atom jitter error (maybe fixed) : 0
Drift error (maybe fixed) : 0
Dropped bytes error (maybe fixed) : 0
Duplicated bytes error (maybe fixed) : 0

Track 02

Pre-gap length : 00:01:10

CRC32 hash : 836D3D06
CRC32 hash (skip zero) : E32A9B21
AccurateRip signature : 3E4A9108
->Accurately ripped! (confidence 1)
Statistics
Read error : 0
Skipped (treated as error) : 0
Edge jitter error (maybe fixed) : 0
Atom jitter error (maybe fixed) : 0
Drift error (maybe fixed) : 0
Dropped bytes error (maybe fixed) : 0
Duplicated bytes error (maybe fixed) : 0

Track 03

Pre-gap length : 00:00:13

CRC32 hash : 77D4F138
CRC32 hash (skip zero) : C325E75A
AccurateRip signature : 4719E95C
->Accurately ripped! (confidence 1)
Statistics
Read error : 0
Skipped (treated as error) : 0
Edge jitter error (maybe fixed) : 0
Atom jitter error (maybe fixed) : 0
Drift error (maybe fixed) : 0
Dropped bytes error (maybe fixed) : 0
Duplicated bytes error (maybe fixed) : 0

Track 04

CRC32 hash : 3F3EB9B2
CRC32 hash (skip zero) : 3A1D2B1B
AccurateRip signature : 834829F6
->Accurately ripped! (confidence 1)
Statistics
Read error : 0
Skipped (treated as error) : 0
Edge jitter error (maybe fixed) : 0
Atom jitter error (maybe fixed) : 0
Drift error (maybe fixed) : 0
Dropped bytes error (maybe fixed) : 0
Duplicated bytes error (maybe fixed) : 0

Track 05

CRC32 hash : B0765211
CRC32 hash (skip zero) : 77ED78ED
AccurateRip signature : A8750023
->Accurately ripped! (confidence 1)
Statistics
Read error : 0
Skipped (treated as error) : 0
Edge jitter error (maybe fixed) : 0
Atom jitter error (maybe fixed) : 0
Drift error (maybe fixed) : 0
Dropped bytes error (maybe fixed) : 0
Duplicated bytes error (maybe fixed) : 0

Track 06

Pre-gap length : 00:01:62

CRC32 hash : B42785E0
CRC32 hash (skip zero) : F335FF86
AccurateRip signature : C0AE13B9
->Rip may not be accurate.
Statistics
Read error : 0
Skipped (treated as error) : 0
Edge jitter error (maybe fixed) : 0
Atom jitter error (maybe fixed) : 0
Drift error (maybe fixed) : 0
Dropped bytes error (maybe fixed) : 0
Duplicated bytes error (maybe fixed) : 0

Track 07

CRC32 hash : 61EE2A5B
CRC32 hash (skip zero) : 1DD33CFA
AccurateRip signature : E94F043D
->Accurately ripped! (confidence 1)
Statistics
Read error : 0
Skipped (treated as error) : 0
Edge jitter error (maybe fixed) : 0
Atom jitter error (maybe fixed) : 0
Drift error (maybe fixed) : 0
Dropped bytes error (maybe fixed) : 0
Duplicated bytes error (maybe fixed) : 0

Track 08

Pre-gap length : 00:00:40

CRC32 hash : 6B93BD84
CRC32 hash (skip zero) : 2F63F80E
AccurateRip signature : 27C54AA9
->Accurately ripped! (confidence 1)
Statistics
Read error : 0
Skipped (treated as error) : 0
Edge jitter error (maybe fixed) : 0
Atom jitter error (maybe fixed) : 0
Drift error (maybe fixed) : 0
Dropped bytes error (maybe fixed) : 0
Duplicated bytes error (maybe fixed) : 0

Track 09

CRC32 hash : F9007A9A
CRC32 hash (skip zero) : 3D4A230E
AccurateRip signature : 3AA2717B
->Accurately ripped! (confidence 1)
Statistics
Read error : 0
Skipped (treated as error) : 0
Edge jitter error (maybe fixed) : 0
Atom jitter error (maybe fixed) : 0
Drift error (maybe fixed) : 0
Dropped bytes error (maybe fixed) : 0
Duplicated bytes error (maybe fixed) : 0

Track 10

Pre-gap length : 00:00:32

CRC32 hash : 160AA394
CRC32 hash (skip zero) : A172DAA2
AccurateRip signature : C18BC230
->Accurately ripped! (confidence 1)
Statistics
Read error : 0
Skipped (treated as error) : 0
Edge jitter error (maybe fixed) : 0
Atom jitter error (maybe fixed) : 0
Drift error (maybe fixed) : 0
Dropped bytes error (maybe fixed) : 0
Duplicated bytes error (maybe fixed) : 0

Track 11

Pre-gap length : 00:02:23

CRC32 hash : 79940127
CRC32 hash (skip zero) : FB41F088
AccurateRip signature : 469BE64E
->Accurately ripped! (confidence 1)
Statistics
Read error : 0
Skipped (treated as error) : 0
Edge jitter error (maybe fixed) : 0
Atom jitter error (maybe fixed) : 0
Drift error (maybe fixed) : 0
Dropped bytes error (maybe fixed) : 0
Duplicated bytes error (maybe fixed) : 0

Track 12

Pre-gap length : 00:02:05

CRC32 hash : 4CCC323A
CRC32 hash (skip zero) : EC5F1D08
AccurateRip signature : E1AE4327
->Accurately ripped! (confidence 1)
Statistics
Read error : 0
Skipped (treated as error) : 0
Edge jitter error (maybe fixed) : 0
Atom jitter error (maybe fixed) : 0
Drift error (maybe fixed) : 0
Dropped bytes error (maybe fixed) : 0
Duplicated bytes error (maybe fixed) : 0

Track 13

CRC32 hash : 3A645C19
CRC32 hash (skip zero) : BBF4FD7E
AccurateRip signature : 1A108473
->Accurately ripped! (confidence 1)
Statistics
Read error : 0
Skipped (treated as error) : 0
Edge jitter error (maybe fixed) : 0
Atom jitter error (maybe fixed) : 0
Drift error (maybe fixed) : 0
Dropped bytes error (maybe fixed) : 0
Duplicated bytes error (maybe fixed) : 0

Track 14

Pre-gap length : 00:01:62

CRC32 hash : 2C34EFB9
CRC32 hash (skip zero) : 75977911
AccurateRip signature : 2388BCA1
->Accurately ripped! (confidence 1)
Statistics
Read error : 0
Skipped (treated as error) : 0
Edge jitter error (maybe fixed) : 0
Atom jitter error (maybe fixed) : 0
Drift error (maybe fixed) : 0
Dropped bytes error (maybe fixed) : 0
Duplicated bytes error (maybe fixed) : 0

Track 15

Pre-gap length : 00:01:53

CRC32 hash : 2E20CE1D
CRC32 hash (skip zero) : C042DA4A
AccurateRip signature : DDAD328C
->Accurately ripped! (confidence 1)
Statistics
Read error : 0
Skipped (treated as error) : 0
Edge jitter error (maybe fixed) : 0
Atom jitter error (maybe fixed) : 0
Drift error (maybe fixed) : 0
Dropped bytes error (maybe fixed) : 0
Duplicated bytes error (maybe fixed) : 0

No errors occurred

End of status report

––––––––––––––––––––––––––––––––––––––––
Analyzed: Nik Kershaw / Anthology
––––––––––––––––––––––––––––––––––––––––

DR Peak RMS Duration Track
––––––––––––––––––––––––––––––––––––––––
DR12 -2.14 dB -16.14 dB 3:47 01-Dancing Girls
DR13 -2.11 dB -17.28 dB 4:33 02-Wouldn't It Be Good
DR13 -1.12 dB -17.68 dB 3:12 03-Drum Talk
DR14 -2.18 dB -17.76 dB 4:39 04-Bogart
DR14 -2.52 dB -18.64 dB 3:12 05-Gone To Pieces
DR14 -2.52 dB -18.77 dB 3:37 06-Shame On You
DR15 -0.72 dB -18.41 dB 4:57 07-Cloak And Dagger
DR13 -1.13 dB -17.75 dB 4:05 08-Faces
DR14 -1.60 dB -17.37 dB 3:24 09-I Won't Let The Sun Go Down On Me
DR11 -4.97 dB -19.41 dB 4:30 10-Human Racing
DR12 -3.29 dB -17.42 dB 3:54 11-The Riddle
DR13 -2.10 dB -17.45 dB 4:56 12-Don Quixote
DR14 -1.91 dB -18.36 dB 4:15 13-Easy
DR13 -2.08 dB -17.44 dB 4:00 14-Wild Horses
DR11 -5.24 dB -19.64 dB 5:57 15-Save The Whale
––––––––––––––––––––––––––––––––––––––––

Number of tracks: 15
Official DR value: DR13

Samplerate: 44100 Hz
Channels: 2
Bits per sample: 16
Bitrate: 890 kbps
Codec: FLAC
================================================================================

Thanks to original releaser

password: BlondStyle