Tags
Language
Tags

Nikolaus Harnoncourt - The Complete Sony Recordings, Part 7 [6CDs] (2016)

Posted By: ArlegZ
Nikolaus Harnoncourt - The Complete Sony Recordings, Part 7 [6CDs] (2016)

Nikolaus Harnoncourt - The Complete Sony Recordings, Part 7 (2016)
EAC | FLAC | Image (Cue & Log) ~ 1,48 Gb | Total time: 05:48:52 | Scans included
Classical | Label: Sony Classical | # 88875173752 | Recorded: 1991-2015

Nikolaus Harnoncourt The Complete Sony Recordings brings together for the first time Harnoncourt s complete recordings from 2002-2015 with his Concentus Musicus Wien, the Wiener Philharmonike, the Chamber Orchestra of Europe and the Symphonieorchester des Bayrischen Rundfunks. The Sony Classical edition features his famous symphony recordings of Mozart, Haydn, Beethoven and Bruckner, alongside his celebrated performances of great choral works such as the Verdi, Brahms and Mozart Requiems and Haydn's Die Schöpfung, as well as Mozart's opera Zaide, Haydn's Orlando paladino and Gershwin's Porgy and Bess. Also included are previously authorized but unreleased recordings of J. S. Bach s Cantatas Nos. 26 & 36, Beethoven's Christus am Ölberge and Dvorák's Stabat Mater.

Contents:
CD 32: Mozart: Symphony No. 35 "Haffner"; Posthorn-Serenade
CD 33: Mozart: Piano Concertos Nos. 23 & 25
CD 34: Mozart: The Mozart Album
CD 35-36: Mozart: The Last Symphonies - Mozart's Instrumental Oratorium
CD 37: Mozart: Requiem


Mozart - Symphony No. 35 'Haffner'; 'Posthorn-Serenade'
CD 32: [71:26]
01. March No. 1 in D Major, K. 335 (K. 320a)
Serenade in D Major, K. 320, "Posthorn-Serenade"
02. I. Adagio maestoso - Allegro con spirito
03. II. Menuetto. Allegro - Trio
04. III. Concertante. Andante grazioso
05. IV. Rondeau. Allegro ma non troppo
06. V. Andantino
07. VI. Menuetto - Trio I - Trio II
08. VII. Finale. Presto
Symphony in D Major, K. 385 "Haffner-Sinfonie"
09. I. Allegro con spirito
10. II. Andante
11. III. Menuetto - Trio
12. IV. Presto

Concentus Musicus Wien
Nikolaus Harnoncourt, conductor


Mozart - Piano Concertos
CD 33: [56:06]
Piano Concerto No. 25 in C major, K 503
01. I. Allegro maestoso
02. II. Andante
03. III. Allegretto
Piano Concerto No. 23 in A major, K 488
04. I. Allegro
05. II. Adagio
06. III. Allegro assai

Rudolf Buchbinder, piano
Concentus Musicus Wien
Nikolaus Harnoncourt, conductor


CD 34: [66:35]
Piano Concerto No.24 in C minor, K 491
01. I. Allegro
02. II. Larghetto
03. III. Allegretto
Piano Concerto No.17 in G major, K 453
04. I. Allegro
05. II. Andante
06. III. Allegretto - Finale. Presto

Lang Lang, piano
Wiener Philharmoniker
Nikolaus Harnoncourt, conductor


Mozart - The Last Symphonies: Mozart's Instrumental Oratorium
CD 35: [65:01]
Symphony No. 39 in E flat major, K 543
01. I. Adagio - Allegro
02. II. Andante con moto
03. III. Menuetto. Allegretto - Trio
04. IV. Finale. Allegro
Symphony No. 40 in G minor, K 550
05. I. Molto allegro
06. II. Andante
07. III. Menuetto. Allegretto
08. IV. Finale. Allegro assai
CD 36: [39:23]
Symphony No. 41 in C major, K 551 "Jupiter"
01. I. Allegro vivace
02. II. Andante cantabile
03. III. Menuetto. Allegretto
04. IV. Molto allegro

Concentus Musicus Wien
Nikolaus Harnoncourt, conductor


Mozart: Requiem in D minor, K 626
CD 37: [50:21]
01. I. Introitus: Requiem (chorus, soprano)
02. II. Kyrie (chorus)
III. Sequentia
03. Dies irae (chorus)
04. Tuba mirum (soprano, alto, tenor, bass)
05. Rex tremendae (chorus)
06. Recordare (soprano, alto, tenor, bass)
07. Confutatis (chorus)
08. Lacrimosa (chorus)
IV. Offertorium
09. Domine Jesu Christe (chorus, soprano, alto, tenor, bass)
10. Hostias (chorus)
11. V. Sanctus (chorus)
12. VI. Benedictus (soprano, alto, tenor, bass)
13. VII. Agnus Dei (chorus)
14. VIII. Communio: Lux aeterna (chorus, soprano)

Christine Schäfer, soprano
Bernarda Fink, alto
Kurt Streit, tenor
Gerald Finley, bass
Arnold Schoenberg Chor
Concentus Musicus Wien
Nikolaus Harnoncourt, conductor




Exact Audio Copy V1.6 from 23. October 2020

EAC extraction logfile from 13. July 2021, 23:52

Nikolaus Harnoncourt, Concentus Musicus Wien / Mozart - Symphony No. 35 'Haffner'; 'Posthorn-Serenade'

Used drive : PIONEER DVD-RW DVR-218L Adapter: 1 ID: 0

Read mode : Secure
Utilize accurate stream : Yes
Defeat audio cache : Yes
Make use of C2 pointers : No

Read offset correction : 6
Overread into Lead-In and Lead-Out : No
Fill up missing offset samples with silence : Yes
Delete leading and trailing silent blocks : No
Null samples used in CRC calculations : Yes
Used interface : Native Win32 interface for Win NT & 2000

Used output format : User Defined Encoder
Selected bitrate : 128 kBit/s
Quality : High
Add ID3 tag : No
Command line compressor : C:\Program Files\Exact Audio Copy\Flac\flac.exe
Additional command line options : -V -8 -T "Date=%year%" -T "Genre=%genre%" %source%


TOC of the extracted CD

Track | Start | Length | Start sector | End sector
––––––––––––––––––––––––––––-
1 | 0:00.00 | 4:00.65 | 0 | 18064
2 | 4:00.65 | 8:45.52 | 18065 | 57491
3 | 12:46.42 | 5:25.63 | 57492 | 81929
4 | 18:12.30 | 8:36.14 | 81930 | 120643
5 | 26:48.44 | 6:29.46 | 120644 | 149864
6 | 33:18.15 | 6:27.30 | 149865 | 178919
7 | 39:45.45 | 5:10.65 | 178920 | 202234
8 | 44:56.35 | 4:24.72 | 202235 | 222106
9 | 49:21.32 | 6:07.28 | 222107 | 249659
10 | 55:28.60 | 8:07.29 | 249660 | 286213
11 | 63:36.14 | 3:38.61 | 286214 | 302624
12 | 67:15.00 | 4:10.46 | 302625 | 321420


Range status and errors

Selected range

Filename C:\ArlegZ\Nikolaus Harnoncourt - Mozart - Symphony No. 35 'Haffner'; 'Posthorn-Serenade'.wav

Peak level 96.7 %
Extraction speed 2.1 X
Range quality 100.0 %
Test CRC ED71793A
Copy CRC ED71793A
Copy OK

No errors occurred


AccurateRip summary

Track 1 accurately ripped (confidence 42) [60ADC25F] (AR v2)
Track 2 accurately ripped (confidence 42) [7E549766] (AR v2)
Track 3 accurately ripped (confidence 42) [701C93D8] (AR v2)
Track 4 accurately ripped (confidence 43) [3799477B] (AR v2)
Track 5 accurately ripped (confidence 42) [26B4C69C] (AR v2)
Track 6 accurately ripped (confidence 37) [70C573A6] (AR v2)
Track 7 accurately ripped (confidence 37) [5F655237] (AR v2)
Track 8 accurately ripped (confidence 42) [8328A1DC] (AR v2)
Track 9 accurately ripped (confidence 43) [9786BC3C] (AR v2)
Track 10 accurately ripped (confidence 42) [BADCC6C9] (AR v2)
Track 11 accurately ripped (confidence 43) [3557DDC7] (AR v2)
Track 12 accurately ripped (confidence 41) [A2648544] (AR v2)

All tracks accurately ripped

End of status report

–– CUETools DB Plugin V2.1.6

[CTDB TOCID: kKU0zDLgc64k4Hg2zuTydOrRrHk-] found
Submit result: kKU0zDLgc64k4Hg2zuTydOrRrHk- has been confirmed
Track | CTDB Status
1 | (99/99) Accurately ripped
2 | (99/99) Accurately ripped
3 | (99/99) Accurately ripped
4 | (98/99) Accurately ripped
5 | (98/99) Accurately ripped
6 | (72/99) Accurately ripped, or (20/99) differs in 27 samples @05:05:22, or (2/99) differs in 27 samples @05:05:22
7 | (72/99) Accurately ripped, or (20/99) differs in 7 samples @00:02:52, or (2/99) differs in 7 samples @00:02:52
8 | (99/99) Accurately ripped
9 | (98/99) Accurately ripped
10 | (98/99) Accurately ripped
11 | (99/99) Accurately ripped
12 | (91/99) Accurately ripped, or (2/99) differs in 1068 samples @04:10:33-04:10:34


==== Log checksum B3E04C93CC85C6EB590B705FCF3383BBE035452EBB76D98EF4A93E6A735D2A87 ====


Exact Audio Copy V1.6 from 23. October 2020

EAC extraction logfile from 22. July 2021, 21:39

Rudolf Buchbinder, Nikolaus Harnoncourt, Concentus musicus Wien / Mozart - Piano Concertos Nos. 23 & 25

Used drive : PIONEER DVD-RW DVR-218L Adapter: 1 ID: 0

Read mode : Secure
Utilize accurate stream : Yes
Defeat audio cache : Yes
Make use of C2 pointers : No

Read offset correction : 6
Overread into Lead-In and Lead-Out : No
Fill up missing offset samples with silence : Yes
Delete leading and trailing silent blocks : No
Null samples used in CRC calculations : Yes
Used interface : Native Win32 interface for Win NT & 2000

Used output format : User Defined Encoder
Selected bitrate : 128 kBit/s
Quality : High
Add ID3 tag : No
Command line compressor : C:\Program Files\Exact Audio Copy\Flac\flac.exe
Additional command line options : -V -8 -T "Date=%year%" -T "Genre=%genre%" %source%


TOC of the extracted CD

Track | Start | Length | Start sector | End sector
––––––––––––––––––––––––––––-
1 | 0:00.00 | 15:04.64 | 0 | 67863
2 | 15:04.64 | 6:48.10 | 67864 | 98473
3 | 21:52.74 | 8:40.65 | 98474 | 137538
4 | 30:33.64 | 11:00.71 | 137539 | 187109
5 | 41:34.60 | 6:14.49 | 187110 | 215208
6 | 47:49.34 | 8:16.38 | 215209 | 252446


Range status and errors

Selected range

Filename C:\ArlegZ\Nikolaus Harnoncourt - Mozart - Piano Concertos Nos. 23 & 25.wav

Peak level 96.6 %
Extraction speed 1.8 X
Range quality 100.0 %
Test CRC C2ECAC09
Copy CRC C2ECAC09
Copy OK

No errors occurred


AccurateRip summary

Track 1 accurately ripped (confidence 26) [99A231F7] (AR v2)
Track 2 accurately ripped (confidence 26) [3B563863] (AR v2)
Track 3 accurately ripped (confidence 26) [B8B6B0AB] (AR v2)
Track 4 accurately ripped (confidence 26) [99C4D77E] (AR v2)
Track 5 accurately ripped (confidence 26) [E44B1D63] (AR v2)
Track 6 accurately ripped (confidence 26) [13BB7F8A] (AR v2)

All tracks accurately ripped

End of status report

–– CUETools DB Plugin V2.1.6

[CTDB TOCID: oTFWaGR1pyIhDG8zT2lFSfngiLY-] found
Submit result: oTFWaGR1pyIhDG8zT2lFSfngiLY- has been confirmed
Track | CTDB Status
1 | (105/105) Accurately ripped
2 | (105/105) Accurately ripped
3 | (105/105) Accurately ripped
4 | (105/105) Accurately ripped
5 | (105/105) Accurately ripped
6 | (104/105) Accurately ripped


==== Log checksum 0BA0AE66CEE37DB96D3D580D2C8B263822D2F1E58580BF85F2FE472AECDCE8EC ====


Exact Audio Copy V1.6 from 23. October 2020

EAC extraction logfile from 23. July 2021, 15:31

Lang Lang, Nikolaus Harnoncourt, Wiener Philharmoniker / Mozart - Piano Concertos Nos. 17 & 24

Used drive : PIONEER DVD-RW DVR-218L Adapter: 1 ID: 0

Read mode : Secure
Utilize accurate stream : Yes
Defeat audio cache : Yes
Make use of C2 pointers : No

Read offset correction : 6
Overread into Lead-In and Lead-Out : No
Fill up missing offset samples with silence : Yes
Delete leading and trailing silent blocks : No
Null samples used in CRC calculations : Yes
Used interface : Native Win32 interface for Win NT & 2000

Used output format : User Defined Encoder
Selected bitrate : 128 kBit/s
Quality : High
Add ID3 tag : No
Command line compressor : C:\Program Files\Exact Audio Copy\Flac\flac.exe
Additional command line options : -V -8 -T "Date=%year%" -T "Genre=%genre%" %source%


TOC of the extracted CD

Track | Start | Length | Start sector | End sector
––––––––––––––––––––––––––––-
1 | 0:00.00 | 15:28.59 | 0 | 69658
2 | 15:28.59 | 7:47.20 | 69659 | 104703
3 | 23:16.04 | 9:52.20 | 104704 | 149123
4 | 33:08.24 | 13:10.29 | 149124 | 208402
5 | 46:18.53 | 11:57.39 | 208403 | 262216
6 | 58:16.17 | 8:18.27 | 262217 | 299593


Range status and errors

Selected range

Filename C:\ArlegZ\Nikolaus Harnoncourt - Mozart - Piano Concertos Nos. 17 & 24.wav

Peak level 98.2 %
Extraction speed 2.0 X
Range quality 100.0 %
Test CRC 26444118
Copy CRC 26444118
Copy OK

No errors occurred


AccurateRip summary

Track 1 accurately ripped (confidence 148) [DA6BC5B7] (AR v2)
Track 2 accurately ripped (confidence 146) [593BCB85] (AR v2)
Track 3 accurately ripped (confidence 149) [4A86E4A3] (AR v2)
Track 4 accurately ripped (confidence 145) [DF686151] (AR v2)
Track 5 accurately ripped (confidence 145) [C27EEBBD] (AR v2)
Track 6 accurately ripped (confidence 146) [F7B12EAC] (AR v2)

All tracks accurately ripped

End of status report

–– CUETools DB Plugin V2.1.6

[CTDB TOCID: sbb6aOBWj_xnjrM4aWOTJ0wDGw8-] found
Submit result: already submitted
Track | CTDB Status
1 | (577/579) Accurately ripped
2 | (578/579) Accurately ripped
3 | (576/579) Accurately ripped
4 | (553/579) Accurately ripped, or (24/579) differs in 5862 samples @06:23:62-06:24:18
5 | (576/579) Accurately ripped
6 | (567/579) Accurately ripped, or (2/579) differs in 9871 samples @08:18:03-08:18:12


==== Log checksum ED7A59DB7027561CB3AFB96F82F839BF99A2DFF7B6BC58538E4C7AFC5AACCDCC ====


Exact Audio Copy V1.6 from 23. October 2020

EAC extraction logfile from 23. July 2021, 0:17

Nikolaus Harnoncourt, Concentus musicus Wien / Mozart - The Last Symphonies (I)

Used drive : PIONEER DVD-RW DVR-218L Adapter: 1 ID: 0

Read mode : Secure
Utilize accurate stream : Yes
Defeat audio cache : Yes
Make use of C2 pointers : No

Read offset correction : 6
Overread into Lead-In and Lead-Out : No
Fill up missing offset samples with silence : Yes
Delete leading and trailing silent blocks : No
Null samples used in CRC calculations : Yes
Used interface : Native Win32 interface for Win NT & 2000

Used output format : User Defined Encoder
Selected bitrate : 128 kBit/s
Quality : High
Add ID3 tag : No
Command line compressor : C:\Program Files\Exact Audio Copy\Flac\flac.exe
Additional command line options : -V -8 -T "Date=%year%" -T "Genre=%genre%" %source%


TOC of the extracted CD

Track | Start | Length | Start sector | End sector
––––––––––––––––––––––––––––-
1 | 0:00.00 | 10:42.12 | 0 | 48161
2 | 10:42.12 | 7:35.72 | 48162 | 82358
3 | 18:18.09 | 3:50.63 | 82359 | 99671
4 | 22:08.72 | 8:20.58 | 99672 | 137229
5 | 30:29.55 | 7:27.01 | 137230 | 170755
6 | 37:56.56 | 12:08.22 | 170756 | 225377
7 | 50:05.03 | 4:19.05 | 225378 | 244807
8 | 54:24.08 | 10:36.74 | 244808 | 292581


Range status and errors

Selected range

Filename C:\ArlegZ\Nikolaus Harnoncourt - Mozart - The Last Symphonies (I).wav

Peak level 96.0 %
Extraction speed 2.0 X
Range quality 100.0 %
Test CRC 4AD6605B
Copy CRC 4AD6605B
Copy OK

No errors occurred


AccurateRip summary

Track 1 accurately ripped (confidence 93) [C6507B7A] (AR v2)
Track 2 accurately ripped (confidence 93) [1331EB5C] (AR v2)
Track 3 accurately ripped (confidence 93) [2C234C61] (AR v2)
Track 4 accurately ripped (confidence 92) [615729AE] (AR v2)
Track 5 accurately ripped (confidence 94) [8348FB7A] (AR v2)
Track 6 accurately ripped (confidence 93) [526F713E] (AR v2)
Track 7 accurately ripped (confidence 94) [56560DAE] (AR v2)
Track 8 accurately ripped (confidence 90) [693C37E4] (AR v2)

All tracks accurately ripped

End of status report

–– CUETools DB Plugin V2.1.6

[CTDB TOCID: uI4.fleS0l0ofH29a4vq9csWxPI-] found
Submit result: uI4.fleS0l0ofH29a4vq9csWxPI- has been confirmed
Track | CTDB Status
1 | (276/277) Accurately ripped
2 | (276/277) Accurately ripped
3 | (275/277) Accurately ripped
4 | (276/277) Accurately ripped
5 | (276/277) Accurately ripped
6 | (276/277) Accurately ripped
7 | (276/277) Accurately ripped
8 | (263/277) Accurately ripped, or (2/277) differs in 10980 samples @10:36:51-10:36:61, or (2/277) differs in 10804 samples @10:36:51-10:36:61


==== Log checksum C2A2C9D1F2E5BB74DA3AAFCE63760737A9C43E7EDBA34D50255025A6152D08AC ====


Exact Audio Copy V1.6 from 23. October 2020

EAC extraction logfile from 23. July 2021, 16:22

Nikolaus Harnoncourt, Concentus musicus Wien / Mozart - The Last Symphonies (II)

Used drive : PIONEER DVD-RW DVR-218L Adapter: 1 ID: 0

Read mode : Secure
Utilize accurate stream : Yes
Defeat audio cache : Yes
Make use of C2 pointers : No

Read offset correction : 6
Overread into Lead-In and Lead-Out : No
Fill up missing offset samples with silence : Yes
Delete leading and trailing silent blocks : No
Null samples used in CRC calculations : Yes
Used interface : Native Win32 interface for Win NT & 2000

Used output format : User Defined Encoder
Selected bitrate : 128 kBit/s
Quality : High
Add ID3 tag : No
Command line compressor : C:\Program Files\Exact Audio Copy\Flac\flac.exe
Additional command line options : -V -8 -T "Date=%year%" -T "Genre=%genre%" %source%


TOC of the extracted CD

Track | Start | Length | Start sector | End sector
––––––––––––––––––––––––––––-
1 | 0:00.00 | 12:59.68 | 0 | 58492
2 | 12:59.68 | 9:29.53 | 58493 | 101220
3 | 22:29.46 | 5:14.09 | 101221 | 124779
4 | 27:43.55 | 11:39.23 | 124780 | 177227


Range status and errors

Selected range

Filename C:\ArlegZ\Nikolaus Harnoncourt - Mozart - The Last Symphonies (II).wav

Peak level 96.6 %
Extraction speed 1.7 X
Range quality 100.0 %
Test CRC C41A8B4C
Copy CRC C41A8B4C
Copy OK

No errors occurred


AccurateRip summary

Track 1 accurately ripped (confidence 92) [43F95BCE] (AR v2)
Track 2 accurately ripped (confidence 92) [0376D98C] (AR v2)
Track 3 accurately ripped (confidence 92) [2075F7A1] (AR v2)
Track 4 accurately ripped (confidence 87) [3680F256] (AR v2)

All tracks accurately ripped

End of status report

–– CUETools DB Plugin V2.1.6

[CTDB TOCID: XPYYG5BcGpk8RM7PmHLNgLsqFDA-] found
Submit result: XPYYG5BcGpk8RM7PmHLNgLsqFDA- has been confirmed
Track | CTDB Status
1 | (283/284) Accurately ripped
2 | (283/284) Accurately ripped
3 | (283/284) Accurately ripped
4 | (281/284) Accurately ripped


==== Log checksum 40AA8FB08D3E734E591D250524DCB9567F6C7FBB4C0EFA8694FBE4D4A3190AF9 ====


Exact Audio Copy V1.6 from 23. October 2020

EAC extraction logfile from 23. July 2021, 17:26

Nikolaus Harnoncourt, Concentus musicus Wien, Arnold Schoenberg Chor / Mozart - Requiem

Used drive : PIONEER DVD-RW DVR-218L Adapter: 1 ID: 0

Read mode : Secure
Utilize accurate stream : Yes
Defeat audio cache : Yes
Make use of C2 pointers : No

Read offset correction : 6
Overread into Lead-In and Lead-Out : No
Fill up missing offset samples with silence : Yes
Delete leading and trailing silent blocks : No
Null samples used in CRC calculations : Yes
Used interface : Native Win32 interface for Win NT & 2000

Used output format : User Defined Encoder
Selected bitrate : 128 kBit/s
Quality : High
Add ID3 tag : No
Command line compressor : C:\Program Files\Exact Audio Copy\Flac\flac.exe
Additional command line options : -V -8 -T "Date=%year%" -T "Genre=%genre%" %source%


TOC of the extracted CD

Track | Start | Length | Start sector | End sector
––––––––––––––––––––––––––––-
1 | 0:00.00 | 4:57.65 | 0 | 22339
2 | 4:57.65 | 2:56.29 | 22340 | 35568
3 | 7:54.19 | 1:50.10 | 35569 | 43828
4 | 9:44.29 | 3:52.35 | 43829 | 61263
5 | 13:36.64 | 1:58.32 | 61264 | 70145
6 | 15:35.21 | 6:19.40 | 70146 | 98610
7 | 21:54.61 | 2:35.41 | 98611 | 110276
8 | 24:30.27 | 3:07.66 | 110277 | 124367
9 | 27:38.18 | 3:50.20 | 124368 | 141637
10 | 31:28.38 | 3:02.69 | 141638 | 155356
11 | 34:31.32 | 1:19.42 | 155357 | 161323
12 | 35:50.74 | 5:20.07 | 161324 | 185330
13 | 41:11.06 | 3:24.37 | 185331 | 200667
14 | 44:35.43 | 5:45.62 | 200668 | 226604


Range status and errors

Selected range

Filename C:\ArlegZ\Nikolaus Harnoncourt - Mozart - Requiem.wav

Peak level 100.0 %
Extraction speed 1.8 X
Range quality 100.0 %
Test CRC B9DC77ED
Copy CRC B9DC77ED
Copy OK

No errors occurred


AccurateRip summary

Track 1 accurately ripped (confidence 12) [686DF419] (AR v2)
Track 2 accurately ripped (confidence 12) [01A0F937] (AR v2)
Track 3 accurately ripped (confidence 12) [83B9F1B8] (AR v2)
Track 4 accurately ripped (confidence 12) [9B8C220B] (AR v2)
Track 5 accurately ripped (confidence 12) [D77BD789] (AR v2)
Track 6 accurately ripped (confidence 12) [7082A5AA] (AR v2)
Track 7 accurately ripped (confidence 12) [A301AE5C] (AR v2)
Track 8 accurately ripped (confidence 12) [A63FE7DB] (AR v2)
Track 9 accurately ripped (confidence 12) [52DD3658] (AR v2)
Track 10 accurately ripped (confidence 12) [7673740C] (AR v2)
Track 11 accurately ripped (confidence 12) [17314DAC] (AR v2)
Track 12 accurately ripped (confidence 12) [5F8F9C93] (AR v2)
Track 13 accurately ripped (confidence 12) [E5B2E070] (AR v2)
Track 14 accurately ripped (confidence 12) [C68048B5] (AR v2)

All tracks accurately ripped

End of status report

–– CUETools DB Plugin V2.1.6

[CTDB TOCID: dPT._TCWiCrgCWXs2XFiLQ1xjYE-] found
Submit result: dPT._TCWiCrgCWXs2XFiLQ1xjYE- has been confirmed
Track | CTDB Status
1 | (558/561) Accurately ripped
2 | (559/561) Accurately ripped
3 | (559/561) Accurately ripped
4 | (559/561) Accurately ripped
5 | (558/561) Accurately ripped
6 | (558/561) Accurately ripped
7 | (558/561) Accurately ripped
8 | (558/561) Accurately ripped
9 | (559/561) Accurately ripped
10 | (559/561) Accurately ripped
11 | (558/561) Accurately ripped
12 | (559/561) Accurately ripped
13 | (559/561) Accurately ripped
14 | (555/561) Accurately ripped, or (2/561) differs in 2769 samples @05:45:45-05:45:48


==== Log checksum 1E55462D8CCD33B40C01740A55F218A7723BB3B42332A689200A7390F9149151 ====


Nikolaus Harnoncourt - The Complete Sony Recordings, Part 7 [6CDs] (2016)