Tags
Language
Tags

Nino Rota - Omaggio A / Homage To Federico Fellini (1993)

Posted By: Efgrapha
Nino Rota - Omaggio A / Homage To Federico Fellini (1993)

Nino Rota - Omaggio A / Homage To Federico Fellini (1993)
EAC | FLAC (Tracks) + cue.+log ~ 365 Mb | Scans included | Time: 01:12:47
Soundtracks, Orchestral Jazz, Classical | Label: Butterfly Music | # BMCDS 101

Nino Rota was an Italian composer, pianist, and conductor who is best known for his film scores, notably for the films of Federico Fellini and Luchino Visconti. Music compilation from Fellini's main films, sach as "Amacord", "La Dolce Vita", "8½", "La Strada", "Nights of Cabiria", "Boccaccio 70".

Fellini's films are full of visions of his own dreams. He once said that he was keeping a notebook near by his bed so that when he wakes up anytime at night or in the morning he would have instant access to a pen and a piece of paper to note or sketch his dreams. For a second, think about yourself being a movie director and that you would like to film one of your dreams, your favorite dream for example. What music would you use? Do we dream silent or with sounds? Or, when we wake up, do we remember the music in our dreams? How can one compose music for another person's dream? You will find answers to these intersting questions with this CD. It is a beautiful CD full of inspiration and a perfect match of two artists' work. Rota understood Fellini perfectly and succeeded in composing for another person's dreams. Sometimes, listening to this CD, I wonder if Fellini's dreams have changed after meeting Rota.

Review by Menguc Tanriseven, Amazon

Nino Rota at Allmusic
Nino Rota at Wiki

Federico Fellini at Wiki

Tracklist:

01. Amacord (02:35)

La Dolce Vita
02. Titoli di testa (05:08)
03. La dolce vita (00:57)
04. Valzer (02:37)
05. Blues (05:42)
06. Finale (02:58)

07. Il Bidone (03:18)

08. La Strada (09:32)

09. I Vitelloni (01:50)


10. La passerella di (02:23)
11. E poi (02:01)
12. L'illusinista (02:19)
13. Carlotta's Galop (02:31)
14. La passerella di addio (05:14)

Nights of Cabiria
(Le Notti Di Cabiria)
15. Titoli di testa (02:04)
16. Asperrando Giorgio (02:04)
17. Mambo di Cabiria (02:35)
18. E la vita conitua (02:42)

19. Lo Sceicco Bianco (01:42)

Boccaccio 70
20. A spasso per Roma (03:50)
21. Bevete piu latte (03:06)
22. La grande seduzione (05:30)


Exact Audio Copy V1.0 beta 3 from 29. August 2011

EAC extraction logfile from 6. October 2012, 12:49

Nino Rota / Omaggio a Federico Fellini

Used drive : PLEXTOR DVDR PX-L890SA Adapter: 1 ID: 0

Read mode : Secure
Utilize accurate stream : Yes
Defeat audio cache : Yes
Make use of C2 pointers : No

Read offset correction : 6
Overread into Lead-In and Lead-Out : No
Fill up missing offset samples with silence : Yes
Delete leading and trailing silent blocks : No
Null samples used in CRC calculations : Yes
Used interface : Installed external ASPI interface
Gap handling : Appended to previous track

Used output format : User Defined Encoder
Selected bitrate : 1024 kBit/s
Quality : High
Add ID3 tag : No
Command line compressor : C:\Program Files\Exact Audio Copy\Flac\flac.exe
Additional command line options : -V -8 -T "Genre=%genre%" -T "Artist=%artist%" -T "Title=%title%" -T "Album=%albumtitle%" -T "Date=%year%" -T "Tracknumber=%tracknr%" -T "Comment=%comment%" %source%


TOC of the extracted CD

Track | Start | Length | Start sector | End sector
––––––––––––––––––––––––––––-
1 | 0:00.33 | 2:35.55 | 33 | 11712
2 | 2:36.13 | 5:08.20 | 11713 | 34832
3 | 7:44.33 | 0:57.30 | 34833 | 39137
4 | 8:41.63 | 2:37.70 | 39138 | 50982
5 | 11:19.58 | 5:42.50 | 50983 | 76682
6 | 17:02.33 | 2:58.50 | 76683 | 90082
7 | 20:01.08 | 3:18.00 | 90083 | 104932
8 | 23:19.08 | 9:32.00 | 104933 | 147832
9 | 32:51.08 | 1:50.62 | 147833 | 156144
10 | 34:41.70 | 2:23.18 | 156145 | 166887
11 | 37:05.13 | 2:01.70 | 166888 | 176032
12 | 39:07.08 | 2:19.62 | 176033 | 186519
13 | 41:26.70 | 2:31.25 | 186520 | 197869
14 | 43:58.20 | 5:14.00 | 197870 | 221419
15 | 49:12.20 | 2:04.13 | 221420 | 230732
16 | 51:16.33 | 2:04.00 | 230733 | 240032
17 | 53:20.33 | 2:35.12 | 240033 | 251669
18 | 55:55.45 | 2:42.50 | 251670 | 263869
19 | 58:38.20 | 1:42.25 | 263870 | 271544
20 | 60:20.45 | 3:50.13 | 271545 | 288807
21 | 64:10.58 | 3:06.50 | 288808 | 302807
22 | 67:17.33 | 5:30.00 | 302808 | 327557


Track 1

Filename F:\torrent\Omaggio a Federico Fellini_Nino Rota\score\01 Amacord.wav

Pre-gap length 0:00:02.33

Peak level 79.0 %
Extraction speed 5.0 X
Track quality 100.0 %
Test CRC CE8BBA40
Copy CRC CE8BBA40
Cannot be verified as accurate (confidence 4) [E80CD7F2], AccurateRip returned [747DBF59] (AR v2)
Copy OK

Track 2

Filename F:\torrent\Omaggio a Federico Fellini_Nino Rota\score\02 Titoli di testa - La Dolce Vita.wav

Peak level 85.5 %
Extraction speed 6.2 X
Track quality 100.0 %
Test CRC 05A5DB59
Copy CRC 05A5DB59
Cannot be verified as accurate (confidence 6) [563A201A], AccurateRip returned [F2128942] (AR v2)
Copy OK

Track 3

Filename F:\torrent\Omaggio a Federico Fellini_Nino Rota\score\03 La dolce vita - La Dolce Vita.wav

Peak level 72.4 %
Extraction speed 3.1 X
Track quality 99.8 %
Test CRC CA54A7CB
Copy CRC CA54A7CB
Cannot be verified as accurate (confidence 6) [19BFF60A], AccurateRip returned [D86F1954] (AR v2)
Copy OK

Track 4

Filename F:\torrent\Omaggio a Federico Fellini_Nino Rota\score\04 Valzer - La Dolce Vita.wav

Peak level 77.2 %
Extraction speed 6.1 X
Track quality 100.0 %
Test CRC 8C993ADF
Copy CRC 8C993ADF
Cannot be verified as accurate (confidence 5) [A3112D22], AccurateRip returned [69C45516] (AR v2)
Copy OK

Track 5

Filename F:\torrent\Omaggio a Federico Fellini_Nino Rota\score\05 Blues - La Dolce Vita.wav

Peak level 46.5 %
Extraction speed 7.3 X
Track quality 100.0 %
Test CRC F1868584
Copy CRC F1868584
Cannot be verified as accurate (confidence 6) [0448E8CA], AccurateRip returned [DA2CE10F] (AR v2)
Copy OK

Track 6

Filename F:\torrent\Omaggio a Federico Fellini_Nino Rota\score\06 Finale - La Dolce Vita.wav

Peak level 73.3 %
Extraction speed 7.1 X
Track quality 100.0 %
Test CRC FC23E544
Copy CRC FC23E544
Cannot be verified as accurate (confidence 6) [77D17358], AccurateRip returned [9C7BD914] (AR v2)
Copy OK

Track 7

Filename F:\torrent\Omaggio a Federico Fellini_Nino Rota\score\07 Il Bidone.wav

Peak level 73.5 %
Extraction speed 7.5 X
Track quality 100.0 %
Test CRC CAEBA46A
Copy CRC CAEBA46A
Cannot be verified as accurate (confidence 5) [A52D58D5], AccurateRip returned [4708172E] (AR v2)
Copy OK

Track 8

Filename F:\torrent\Omaggio a Federico Fellini_Nino Rota\score\08 La Strada.wav

Peak level 74.9 %
Extraction speed 8.4 X
Track quality 99.9 %
Test CRC 9D1E4B6E
Copy CRC 9D1E4B6E
Cannot be verified as accurate (confidence 4) [0876F45B], AccurateRip returned [22ACF3F7] (AR v2)
Copy OK

Track 9

Filename F:\torrent\Omaggio a Federico Fellini_Nino Rota\score\09 I Vitelloni.wav

Peak level 70.3 %
Extraction speed 7.5 X
Track quality 100.0 %
Test CRC 0E2A5EFD
Copy CRC 0E2A5EFD
Cannot be verified as accurate (confidence 5) [F26F35E0], AccurateRip returned [6CEE18D8] (AR v2)
Copy OK

Track 10

Filename F:\torrent\Omaggio a Federico Fellini_Nino Rota\score\10 La passerella di 8 1 - 2.wav

Peak level 70.4 %
Extraction speed 8.1 X
Track quality 100.0 %
Test CRC 9B412453
Copy CRC 9B412453
Cannot be verified as accurate (confidence 5) [F2F8A6B0], AccurateRip returned [6E3F9A0B] (AR v2)
Copy OK

Track 11

Filename F:\torrent\Omaggio a Federico Fellini_Nino Rota\score\11 E poi - 8 1 - 2.wav

Peak level 52.5 %
Extraction speed 7.9 X
Track quality 100.0 %
Test CRC E7826C47
Copy CRC E7826C47
Cannot be verified as accurate (confidence 4) [40C36977], AccurateRip returned [F4E32110] (AR v2)
Copy OK

Track 12

Filename F:\torrent\Omaggio a Federico Fellini_Nino Rota\score\12 L'illusinista - 8 1 - 2.wav

Peak level 59.9 %
Extraction speed 8.2 X
Track quality 100.0 %
Test CRC ACE88FBD
Copy CRC ACE88FBD
Cannot be verified as accurate (confidence 4) [381C0628], AccurateRip returned [F872D493] (AR v2)
Copy OK

Track 13

Filename F:\torrent\Omaggio a Federico Fellini_Nino Rota\score\13 Carlotta's Galop - 8 1 - 2.wav

Peak level 67.5 %
Extraction speed 8.6 X
Track quality 100.0 %
Test CRC 80AEC2F8
Copy CRC 80AEC2F8
Cannot be verified as accurate (confidence 5) [EAAE9A89], AccurateRip returned [55DEC335] (AR v2)
Copy OK

Track 14

Filename F:\torrent\Omaggio a Federico Fellini_Nino Rota\score\14 La passerella di addio - 8 1 - 2.wav

Peak level 66.8 %
Extraction speed 9.9 X
Track quality 100.0 %
Test CRC 27AB4471
Copy CRC 27AB4471
Cannot be verified as accurate (confidence 5) [AEDFCC2D], AccurateRip returned [2209A450] (AR v2)
Copy OK

Track 15

Filename F:\torrent\Omaggio a Federico Fellini_Nino Rota\score\15 Titoli di testa - Le Notti Di Cabiria.wav

Peak level 74.8 %
Extraction speed 7.2 X
Track quality 99.9 %
Test CRC E634DB0D
Copy CRC E634DB0D
Cannot be verified as accurate (confidence 5) [70E104D7], AccurateRip returned [9366DCB6] (AR v2)
Copy OK

Track 16

Filename F:\torrent\Omaggio a Federico Fellini_Nino Rota\score\16 Asperrando Giorgio - Le Notti Di Cabiria.wav

Peak level 73.3 %
Extraction speed 8.8 X
Track quality 100.0 %
Test CRC A9B924E7
Copy CRC A9B924E7
Cannot be verified as accurate (confidence 4) [72DD4B6A], AccurateRip returned [1B75EF33] (AR v2)
Copy OK

Track 17

Filename F:\torrent\Omaggio a Federico Fellini_Nino Rota\score\17 Mambo di Cabiria - Le Notti Di Cabiria.wav

Peak level 67.6 %
Extraction speed 9.3 X
Track quality 100.0 %
Test CRC 3396E3D1
Copy CRC 3396E3D1
Cannot be verified as accurate (confidence 5) [5414957A], AccurateRip returned [0D32A916] (AR v2)
Copy OK

Track 18

Filename F:\torrent\Omaggio a Federico Fellini_Nino Rota\score\18 E la vita conitua - Le Notti Di Cabiria.wav

Peak level 71.6 %
Extraction speed 8.1 X
Track quality 99.9 %
Test CRC 66C48AD6
Copy CRC 66C48AD6
Cannot be verified as accurate (confidence 4) [23E4E158], AccurateRip returned [C4718FDF] (AR v2)
Copy OK

Track 19

Filename F:\torrent\Omaggio a Federico Fellini_Nino Rota\score\19 Lo Sceicco Bianco.wav

Peak level 70.1 %
Extraction speed 8.8 X
Track quality 100.0 %
Test CRC 8739D48B
Copy CRC 8739D48B
Cannot be verified as accurate (confidence 5) [5A026A21], AccurateRip returned [4768AD96] (AR v2)
Copy OK

Track 20

Filename F:\torrent\Omaggio a Federico Fellini_Nino Rota\score\20 A spasso per Roma - Boccaccio 70.wav

Peak level 67.4 %
Extraction speed 10.4 X
Track quality 100.0 %
Test CRC B67FF23C
Copy CRC B67FF23C
Cannot be verified as accurate (confidence 5) [E6D03F43], AccurateRip returned [24BD0A9B] (AR v2)
Copy OK

Track 21

Filename F:\torrent\Omaggio a Federico Fellini_Nino Rota\score\21 Bevete piu latte - Boccaccio 70.wav

Peak level 73.7 %
Extraction speed 10.4 X
Track quality 100.0 %
Test CRC 8D6865FB
Copy CRC 8D6865FB
Cannot be verified as accurate (confidence 5) [AC838319], AccurateRip returned [0AA8A9BD] (AR v2)
Copy OK

Track 22

Filename F:\torrent\Omaggio a Federico Fellini_Nino Rota\score\22 La grande seduzione - Boccaccio 70.wav

Peak level 69.7 %
Extraction speed 10.4 X
Track quality 99.9 %
Test CRC D42B2D34
Copy CRC D42B2D34
Cannot be verified as accurate (confidence 4) [3513892E], AccurateRip returned [8469C4A6] (AR v2)
Copy OK


No tracks could be verified as accurate
You may have a different pressing from the one(s) in the database

No errors occurred

End of status report

==== Log checksum C29F1C28692FC3DE9FB0CC20D53BCFD4C1B8901F2DBC3D73D2E24CD27C35AE10 ====

foobar2000 1.1.16 / Dynamic Range Meter 1.1.1
log date: 2012-12-19 22:18:43

––––––––––––––––––––––––––––––––––––––––
Analyzed: Nino Rota / Omaggio a Federico Fellini
––––––––––––––––––––––––––––––––––––––––

DR Peak RMS Duration Track
––––––––––––––––––––––––––––––––––––––––
DR11 -2.04 dB -15.94 dB 2:36 01-Amacord
DR13 -1.35 dB -20.35 dB 5:08 02-Titoli di testa - La Dolce Vita
DR11 -2.80 dB -17.18 dB 0:57 03-La dolce vita - La Dolce Vita
DR11 -2.24 dB -18.25 dB 2:38 04-Valzer - La Dolce Vita
DR12 -6.64 dB -22.29 dB 5:43 05-Blues - La Dolce Vita
DR12 -2.69 dB -17.85 dB 2:59 06-Finale - La Dolce Vita
DR12 -2.67 dB -18.90 dB 3:18 07-Il Bidone
DR10 -2.50 dB -16.25 dB 9:32 08-La Strada
DR9 -3.05 dB -16.10 dB 1:51 09-I Vitelloni
DR10 -3.05 dB -15.48 dB 2:23 10-La passerella di 8 1 - 2
DR10 -5.58 dB -18.48 dB 2:02 11-E poi - 8 1 - 2
DR13 -4.45 dB -20.24 dB 2:20 12-L'illusinista - 8 1 - 2
DR11 -3.41 dB -16.37 dB 2:31 13-Carlotta's Galop - 8 1 - 2
DR12 -3.49 dB -20.23 dB 5:14 14-La passerella di addio - 8 1 - 2
DR10 -2.52 dB -16.21 dB 2:04 15-Titoli di testa - Le Notti Di Cabiria
DR9 -2.70 dB -15.74 dB 2:04 16-Asperrando Giorgio - Le Notti Di Cabiria
DR9 -3.40 dB -13.84 dB 2:35 17-Mambo di Cabiria - Le Notti Di Cabiria
DR9 -2.89 dB -15.38 dB 2:43 18-E la vita conitua - Le Notti Di Cabiria
DR8 -3.08 dB -13.76 dB 1:42 19-Lo Sceicco Bianco
DR12 -3.42 dB -19.03 dB 3:50 20-A spasso per Roma - Boccaccio 70
DR11 -2.64 dB -17.27 dB 3:07 21-Bevete piu latte - Boccaccio 70
DR13 -3.14 dB -22.83 dB 5:30 22-La grande seduzione - Boccaccio 70
––––––––––––––––––––––––––––––––––––––––

Number of tracks: 22
Official DR value: DR11

Samplerate: 44100 Hz
Channels: 2
Bits per sample: 16
Bitrate: 598 kbps
Codec: FLAC
================================================================================

Nino Rota - Omaggio A / Homage To Federico Fellini (1993)

Nino Rota - Omaggio A / Homage To Federico Fellini (1993)

All thanks to original uploader - Sarant

More Movies & Soundtracks in Efgrapha Blog