Subcategories

Nicola Conte - Love & Revolution (2011) {Impulse!/Universal Music Group Europe}

Posted By: TestTickles
Nicola Conte - Love & Revolution (2011) {Impulse!/Universal Music Group Europe}

Nicola Conte - Love & Revolution (2011) {Impulse!/Universal Music Group Europe}
EAC Rip | FLAC with CUE and LOG | scan | 483 mb
MP3 CBR 320 kbps | RAR | 155 mb
Genre: soul jazz, Afro-Cuban jazz, contemporary jazz

Love & Revolution is the 2011 album by Nicole Conte. This was released in Europe by Impulse! via Universal Music Group.

01. Do You Feel Like I Feel (3:53)
02. Love From The Sun (4:33)
03. Here (3:50)
04. Black Spirits (5:44)
05. Mysterie Of You (4:22)
06. Shiva (5:30)
07. Ghana (5:09)
08. Quiet Dawn (4:45)
09. Scarborough Fair (4:03)
10. Love And Revolution (3:35)
11. Bantu (5:59)
12. All Praises To Allah (4:30)
13. Ra In Egypt (4:02)
14. Temple Of Far East (6:06)
15. I'm The Air (4:19)

Exact Audio Copy V0.99 prebeta 4 from 23. January 2008

EAC extraction logfile from 2. August 2011, 10:42

Nicola Conte / Love & Revolution

Used drive : ATAPI DVD A DH16AASH Adapter: 1 ID: 1

Read mode : Secure
Utilize accurate stream : Yes
Defeat audio cache : Yes
Make use of C2 pointers : No

Read offset correction : 6
Overread into Lead-In and Lead-Out : No
Fill up missing offset samples with silence : Yes
Delete leading and trailing silent blocks : No
Null samples used in CRC calculations : Yes
Used interface : Native Win32 interface for Win NT & 2000
Gap handling : Appended to previous track

Used output format : User Defined Encoder
Selected bitrate : 768 kBit/s
Quality : High
Add ID3 tag : No
Command line compressor : M:\Program Files\Exact Audio Copy\Flac\flac.exe
Additional command line options : -8 -V -T "artist=%a" -T "title=%t" -T "album=%g" -T "date=%y" -T "tracknumber=%n" -T "genre=%m" -T "comment=High Quality, EAC secure, Lossless flac " %s

TOC of the extracted CD

Track | Start | Length | Start sector | End sector
––––––––––––––––––––––––––––-
1 | 0:00.00 | 3:52.41 | 0 | 17440
2 | 3:52.41 | 4:32.69 | 17441 | 37909
3 | 8:25.35 | 3:51.29 | 37910 | 55263
4 | 12:16.64 | 5:44.01 | 55264 | 81064
5 | 18:00.65 | 4:22.18 | 81065 | 100732
6 | 22:23.08 | 5:29.65 | 100733 | 125472
7 | 27:52.73 | 5:09.57 | 125473 | 148704
8 | 33:02.55 | 4:45.11 | 148705 | 170090
9 | 37:47.66 | 4:02.73 | 170091 | 188313
10 | 41:50.64 | 3:35.22 | 188314 | 204460
11 | 45:26.11 | 5:59.18 | 204461 | 231403
12 | 51:25.29 | 4:30.34 | 231404 | 251687
13 | 55:55.63 | 4:01.51 | 251688 | 269813
14 | 59:57.39 | 6:06.72 | 269814 | 297335
15 | 66:04.36 | 4:18.73 | 297336 | 316758

Track 1

Filename C:\cuntfist\FLAC\Nicola Conte - Love & Revolution (2011) [FLAC] {Impulse!, Universal Music Group Europe}\01 - Do You Feel Like I Feel.wav

Pre-gap length 0:00:02.00

Peak level 99.9 %
Track quality 100.0 %
Test CRC 079B2BEC
Copy CRC 079B2BEC
Track not present in AccurateRip database
Copy OK

Track 2

Filename C:\cuntfist\FLAC\Nicola Conte - Love & Revolution (2011) [FLAC] {Impulse!, Universal Music Group Europe}\02 - Love From The Sun.wav

Peak level 99.9 %
Track quality 99.9 %
Test CRC CE78E1AB
Copy CRC CE78E1AB
Track not present in AccurateRip database
Copy OK

Track 3

Filename C:\cuntfist\FLAC\Nicola Conte - Love & Revolution (2011) [FLAC] {Impulse!, Universal Music Group Europe}\03 - Here.wav

Pre-gap length 0:00:00.06

Peak level 99.9 %
Track quality 100.0 %
Test CRC C4B9DCDE
Copy CRC C4B9DCDE
Track not present in AccurateRip database
Copy OK

Track 4

Filename C:\cuntfist\FLAC\Nicola Conte - Love & Revolution (2011) [FLAC] {Impulse!, Universal Music Group Europe}\04 - Black Spirits.wav

Pre-gap length 0:00:01.21

Peak level 99.9 %
Track quality 99.9 %
Test CRC 4AF07562
Copy CRC 4AF07562
Track not present in AccurateRip database
Copy OK

Track 5

Filename C:\cuntfist\FLAC\Nicola Conte - Love & Revolution (2011) [FLAC] {Impulse!, Universal Music Group Europe}\05 - Mystery Of You.wav

Peak level 99.9 %
Track quality 100.0 %
Test CRC 9F3E9856
Copy CRC 9F3E9856
Track not present in AccurateRip database
Copy OK

Track 6

Filename C:\cuntfist\FLAC\Nicola Conte - Love & Revolution (2011) [FLAC] {Impulse!, Universal Music Group Europe}\06 - Shiva.wav

Pre-gap length 0:00:00.38

Peak level 99.9 %
Track quality 100.0 %
Test CRC C3914578
Copy CRC C3914578
Track not present in AccurateRip database
Copy OK

Track 7

Filename C:\cuntfist\FLAC\Nicola Conte - Love & Revolution (2011) [FLAC] {Impulse!, Universal Music Group Europe}\07 - Ghana.wav

Peak level 99.9 %
Track quality 100.0 %
Test CRC A909ACF5
Copy CRC A909ACF5
Track not present in AccurateRip database
Copy OK

Track 8

Filename C:\cuntfist\FLAC\Nicola Conte - Love & Revolution (2011) [FLAC] {Impulse!, Universal Music Group Europe}\08 - Quiet Dawn.wav

Pre-gap length 0:00:00.52

Peak level 99.9 %
Track quality 100.0 %
Test CRC 314B26C7
Copy CRC 314B26C7
Track not present in AccurateRip database
Copy OK

Track 9

Filename C:\cuntfist\FLAC\Nicola Conte - Love & Revolution (2011) [FLAC] {Impulse!, Universal Music Group Europe}\09 - Scarborough Fair.wav

Pre-gap length 0:00:00.06

Peak level 99.9 %
Track quality 100.0 %
Test CRC FF85700B
Copy CRC FF85700B
Track not present in AccurateRip database
Copy OK

Track 10

Filename C:\cuntfist\FLAC\Nicola Conte - Love & Revolution (2011) [FLAC] {Impulse!, Universal Music Group Europe}\10 - Love And Revolution.wav

Peak level 99.9 %
Track quality 100.0 %
Test CRC 9654D1D4
Copy CRC 9654D1D4
Track not present in AccurateRip database
Copy OK

Track 11

Filename C:\cuntfist\FLAC\Nicola Conte - Love & Revolution (2011) [FLAC] {Impulse!, Universal Music Group Europe}\11 - Bantu.wav

Pre-gap length 0:00:00.10

Peak level 99.9 %
Track quality 100.0 %
Test CRC 578A6CC4
Copy CRC 578A6CC4
Track not present in AccurateRip database
Copy OK

Track 12

Filename C:\cuntfist\FLAC\Nicola Conte - Love & Revolution (2011) [FLAC] {Impulse!, Universal Music Group Europe}\12 - All Praises To Allah.wav

Peak level 99.9 %
Track quality 100.0 %
Test CRC 933F3E77
Copy CRC 933F3E77
Track not present in AccurateRip database
Copy OK

Track 13

Filename C:\cuntfist\FLAC\Nicola Conte - Love & Revolution (2011) [FLAC] {Impulse!, Universal Music Group Europe}\13 - Ra In Egypt.wav

Peak level 99.9 %
Track quality 100.0 %
Test CRC 1D75FF38
Copy CRC 1D75FF38
Track not present in AccurateRip database
Copy OK

Track 14

Filename C:\cuntfist\FLAC\Nicola Conte - Love & Revolution (2011) [FLAC] {Impulse!, Universal Music Group Europe}\14 - Temple Of Far East.wav

Peak level 99.9 %
Track quality 100.0 %
Test CRC 013D3615
Copy CRC 013D3615
Track not present in AccurateRip database
Copy OK

Track 15

Filename C:\cuntfist\FLAC\Nicola Conte - Love & Revolution (2011) [FLAC] {Impulse!, Universal Music Group Europe}\15 - I'm The Air.wav

Peak level 99.9 %
Track quality 100.0 %
Test CRC 1E8464F7
Copy CRC 1E8464F7
Track not present in AccurateRip database
Copy OK

None of the tracks are present in the AccurateRip database

No errors occurred

End of status report
.

Thank you to the original uploader.