Subcategories
Please register here if you want to download anything!

If domain in your address bar is different from the list below
PLEASE LEAVE THAT SITE IMMEDIATELY
❗IT'S A DANGEROUS FAKE❗



Spicy Magazines for Men! ;-)

Norah Jones - Feels Like Home (2004) Deluxe Edition with Bonus DVD [Re-Up]

Posted By: Designol
Norah Jones - Feels Like Home (2004) Deluxe Edition with Bonus DVD [Re-Up]

Norah Jones - Feels Like Home (2004) Deluxe Edition with Bonus DVD
EAC | FLAC | Tracks (Cue&Log) ~ 364 Mb | Mp3 (CBR320) ~ 188 Mb | 00:56:26 | Scans included
DVD5 | PAL | 720x576 (4:3) VBR | AC3 2.0, 224 kbps/5.1, 448 kbps | Time: 00:42:58 | ~ 2.43 Gb (Subs)
Adult Alternative Pop/Rock, Vocal Jazz, Country Blues | Label: EMI/Blue Note | # 7243 5 99972 0 9

This expanded edition of Feels Like Home includes three unreleased tracks from the recording session; plus a DVD mixed in 5.1 Surround Sound of of four live tracks filmed at the Teatro Nuevo Alcala in Madrid, Spain; two music videos; and an exclusive interview.

It may be far too obvious to even mention that Norah Jones' follow-up to her 18-million-unit-selling, eight-Grammy-winning, genre-bending, super-smash album Come Away With Me has perhaps a bit too much to live up to. But that's probably the biggest conundrum for Jones: having to follow up the phenomenal success of an album that was never designed to be so hugely popular in the first place. Come Away With Me was a little album by an unknown pianist/vocalist who attempted to mix jazz, country, and folk in an acoustic setting – who knew? Feels Like Home could be seen as "Come Away With Me Again" if not for that fact that it's actually better. Smartly following the template forged by Jones and producer Arif Mardin, there is the intimate single "Sunrise," some reworked cover tunes, some interesting originals, and one ostensible jazz standard. These are all good things, for also like its predecessor, Feels Like Home is a soft and amiable album that frames Jones' soft-focus Aretha Franklin voice with a group of songs that are as classy as they are quiet. Granted, not unlike the dippy albeit catchy hit "Don't Know Why," they often portend deep thoughts but come off in the end more like heartfelt daydreams. Of course, Jones could sing the phone book and make it sound deep, and that's what's going to keep listeners coming back.

What's surprising here are the bluesy, more jaunty songs that really dig into the country stylings only hinted at on Come Away With Me. To these ends, the infectious shuffle of "What Am I to You?" finds Jones truly coming into her own as a blues singer as well as a writer. Her voice has developed a spine-tingling breathy scratch that pulls on your ear as she rises to the chorus. Similarly, "Toes" and "Carnival Town" – co-written by bassist Lee Alexander and Jones – are pure '70s singer/songwriting that call to mind a mix of Rickie Lee Jones and k.d. lang. Throw in covers of Tom Waits and Townes Van Zandt along with Duke Ellington's "Melancholia," retitled here "Don't Miss You at All" and featuring lyrics by Jones, and you've got an album so blessed with superb songwriting that Jones' vocals almost push the line into too much of a good thing. Thankfully, there is also a rawness and organic soulfulness in the production that's refreshing. No digital pitch correction was employed in the studio and you can sometimes catch Jones hitting an endearingly sour note. She also seems to be making good on her stated desire to remain a part of a band. Most all of her sidemen, who've worked with the likes of Tom Waits and Cassandra Wilson, get writing credits. It's a "beauty and the beast" style partnership that harks back to the best Brill Building-style intentions and makes for a quietly experimental and well-balanced album.

Review by Matt Collar, Allmusic.com

Norah Jones - Feels Like Home (2004) Deluxe Edition with Bonus DVD [Re-Up]



Tracklist:

01. Sunrise (03:20)
02. What Am I To You? (03:30)
03. Those Sweet Words (03:22)
04. Carnival Town (03:11)
05. In The Morning (04:07)
06. Be Here To Love Me (03:28)
07. Creepin' In (03:03)
08. Toes (03:46)
09. Humble Me (04:36)
10. Above Ground (03:43)
11. The Long Way Home (03:13)
12. The Prettiest Thing (03:51)
13. Don't Miss You At All (03:08)
14. Sleepless Nights (04:15) (bonus track)
15. Moon Song (02:45) (bonus track)
16. I Turned Your Picture To The Wall (03:01) (bonus track)


EAC extraction logfile from 30. June 2006, 23:36 for CD
Norah Jones / Feels Like Home (Deluxe Edition)

Used drive : LITE-ON DVDRW SOHW-812S Adapter: 1 ID: 0
Read mode : Secure with NO C2, accurate stream, disable cache
Read offset correction : 12
Overread into Lead-In and Lead-Out : No

Used output format : C:\Program Files\FLAC\flac.exe (User Defined Encoder)
128 kBit/s
Additional command line options : -V -8 -T "artist=%a" -T "title=%t" -T "album=%g" -T "date=%y" -T "tracknumber=%n" -T "genre=%m" %s

Other options :
Fill up missing offset samples with silence : Yes
Delete leading and trailing silent blocks : No
Native Win32 interface for Win NT & 2000


Track 1
Filename G:\Oink Uploads\Norah Jones - Feels Like Home (Deluxe Edition)\01 - Sunrise.wav

Pre-gap length 0:00:02.00

Peak level 99.9 %
Track quality 100.0 %
Test CRC DCE1610D
Copy CRC DCE1610D
Copy OK

Track 2
Filename G:\Oink Uploads\Norah Jones - Feels Like Home (Deluxe Edition)\02 - What Am I To You .wav

Pre-gap length 0:00:00.66

Peak level 99.9 %
Track quality 100.0 %
Test CRC 3197597A
Copy CRC 3197597A
Copy OK

Track 3
Filename G:\Oink Uploads\Norah Jones - Feels Like Home (Deluxe Edition)\03 - Those Sweet Words.wav

Pre-gap length 0:00:01.40

Peak level 99.9 %
Track quality 100.0 %
Test CRC DA3C513A
Copy CRC DA3C513A
Copy OK

Track 4
Filename G:\Oink Uploads\Norah Jones - Feels Like Home (Deluxe Edition)\04 - Carnival Town.wav

Pre-gap length 0:00:01.26

Peak level 94.0 %
Track quality 100.0 %
Test CRC 35361981
Copy CRC 35361981
Copy OK

Track 5
Filename G:\Oink Uploads\Norah Jones - Feels Like Home (Deluxe Edition)\05 - In The Morning.wav

Peak level 99.9 %
Track quality 100.0 %
Test CRC 1315628B
Copy CRC 1315628B
Copy OK

Track 6
Filename G:\Oink Uploads\Norah Jones - Feels Like Home (Deluxe Edition)\06 - Be Here To Love Me.wav

Pre-gap length 0:00:01.46

Peak level 94.4 %
Track quality 99.9 %
Test CRC B3C2027C
Copy CRC B3C2027C
Copy OK

Track 7
Filename G:\Oink Uploads\Norah Jones - Feels Like Home (Deluxe Edition)\07 - Creepin' In.wav

Pre-gap length 0:00:01.16

Peak level 99.9 %
Track quality 100.0 %
Test CRC 0028A3BC
Copy CRC 0028A3BC
Copy OK

Track 8
Filename G:\Oink Uploads\Norah Jones - Feels Like Home (Deluxe Edition)\08 - Toes.wav

Pre-gap length 0:00:03.84

Peak level 89.1 %
Track quality 100.0 %
Test CRC 1DBB7DE7
Copy CRC 1DBB7DE7
Copy OK

Track 9
Filename G:\Oink Uploads\Norah Jones - Feels Like Home (Deluxe Edition)\09 - Humble Me.wav

Pre-gap length 0:00:00.10

Peak level 94.0 %
Track quality 100.0 %
Test CRC 19A4FAD0
Copy CRC 19A4FAD0
Copy OK

Track 10
Filename G:\Oink Uploads\Norah Jones - Feels Like Home (Deluxe Edition)\10 - Above Ground.wav

Pre-gap length 0:00:01.26

Peak level 99.9 %
Track quality 100.0 %
Test CRC DBB8CE8B
Copy CRC DBB8CE8B
Copy OK

Track 11
Filename G:\Oink Uploads\Norah Jones - Feels Like Home (Deluxe Edition)\11 - The Long Way Home.wav

Pre-gap length 0:00:01.90

Peak level 99.9 %
Track quality 99.9 %
Test CRC 663408D5
Copy CRC 663408D5
Copy OK

Track 12
Filename G:\Oink Uploads\Norah Jones - Feels Like Home (Deluxe Edition)\12 - The Prettiest Thing.wav

Pre-gap length 0:00:01.33

Peak level 95.5 %
Track quality 100.0 %
Test CRC E0EB4DEA
Copy CRC E0EB4DEA
Copy OK

Track 13
Filename G:\Oink Uploads\Norah Jones - Feels Like Home (Deluxe Edition)\13 - Don't Miss You At All.wav

Pre-gap length 0:00:01.69

Peak level 99.9 %
Track quality 100.0 %
Test CRC B4ABF6EF
Copy CRC B4ABF6EF
Copy OK

Track 14
Filename G:\Oink Uploads\Norah Jones - Feels Like Home (Deluxe Edition)\14 - Sleepless Nights.wav

Pre-gap length 0:00:01.13

Peak level 88.8 %
Track quality 99.9 %
Test CRC 373BCCF5
Copy CRC 373BCCF5
Copy OK

Track 15
Filename G:\Oink Uploads\Norah Jones - Feels Like Home (Deluxe Edition)\15 - Moon Song.wav

Pre-gap length 0:00:01.86

Peak level 99.9 %
Track quality 99.9 %
Test CRC 400BF462
Copy CRC 400BF462
Copy OK

Track 16
Filename G:\Oink Uploads\Norah Jones - Feels Like Home (Deluxe Edition)\16 - I Turned Your Picture To The Wall.wav

Pre-gap length 0:00:01.86

Peak level 99.9 %
Track quality 100.0 %
Test CRC E5CEE8E0
Copy CRC E5CEE8E0
Copy OK

No errors occured


End of status report

[CUETools log; Date: 06.02.2017 17:51:09; Version: 2.1.4]
[CTDB TOCID: 0nMWmheEbTqq_pWjbjYljh27rUc-] found.
Track | CTDB Status
1 | ( 59/219) Accurately ripped
2 | ( 57/219) Accurately ripped
3 | ( 57/219) Accurately ripped
4 | ( 57/219) Accurately ripped
5 | ( 56/219) Accurately ripped
6 | ( 57/219) Accurately ripped
7 | ( 57/219) Accurately ripped
8 | ( 57/219) Accurately ripped
9 | ( 56/219) Accurately ripped
10 | ( 57/219) Accurately ripped
11 | ( 57/219) Accurately ripped
12 | ( 57/219) Accurately ripped
13 | ( 57/219) Accurately ripped
14 | ( 56/219) Accurately ripped
15 | ( 59/219) Accurately ripped
16 | ( 53/219) Accurately ripped
[AccurateRip ID: 00212478-018f34be-d40d3a10] found.
Track [ CRC | V2 ] Status
01 [945d5424|4d2e2117] (045+036/132) Accurately ripped
02 [be705628|1ac1d8ba] (045+038/134) Accurately ripped
03 [790af263|fcf76d5c] (045+037/133) Accurately ripped
04 [36cec535|387b6cda] (045+037/133) Accurately ripped
05 [85621eb7|aac6ac88] (044+037/132) Accurately ripped
06 [bdfa67b8|4cd97eac] (045+037/133) Accurately ripped
07 [966a1240|1366a410] (045+038/134) Accurately ripped
08 [c6276a88|5766a68f] (043+037/131) Accurately ripped
09 [599a30e7|a5f45085] (044+036/131) Accurately ripped
10 [b57a381e|eeebdf6c] (045+037/133) Accurately ripped
11 [7b2d5e68|4a2179a9] (045+038/134) Accurately ripped
12 [54c05691|29ee5022] (045+038/134) Accurately ripped
13 [d488cad4|008c1e82] (045+037/133) Accurately ripped
14 [17839bd4|6cc851d0] (044+037/133) Accurately ripped
15 [a39e5caa|79ec235d] (044+038/134) Accurately ripped
16 [2520db77|4ccc5e4b] (042+036/130) Accurately ripped
Offsetted by -682:
01 [fe8573d0] (002/132) Accurately ripped
02 [e08ffcd8] (002/134) Accurately ripped
03 [0a06f0b1] (002/133) Accurately ripped
04 [76192d17] (002/133) Accurately ripped
05 [148339e3] (002/132) Accurately ripped
06 [ceb92f2e] (002/133) Accurately ripped
07 [f00ba96e] (002/134) Accurately ripped
08 [a823d682] (002/131) Accurately ripped
09 [5ad829b5] (002/131) Accurately ripped
10 [3661ff22] (002/133) Accurately ripped
11 [766d43aa] (002/134) Accurately ripped
12 [5ae8bfb5] (002/134) Accurately ripped
13 [67a97618] (002/133) Accurately ripped
14 [99f1b974] (002/133) Accurately ripped
15 [6ea549de] (002/134) Accurately ripped
16 [cf59a45d] (002/130) Accurately ripped
Offsetted by -18:
01 [02856d00] (007/132) Accurately ripped
02 [81c78198] (006/134) Accurately ripped
03 [3b8e3829] (006/133) Accurately ripped
04 [a55302aa] (006/133) Accurately ripped
05 [315bebf8] (006/132) Accurately ripped
06 [66959646] (006/133) Accurately ripped
07 [58f7b866] (006/134) Accurately ripped
08 [bd1a8f2a] (006/131) Accurately ripped
09 [b77a0b2d] (006/131) Accurately ripped
10 [7e528ab2] (006/133) Accurately ripped
11 [a7585872] (006/134) Accurately ripped
12 [35620fc5] (006/134) Accurately ripped
13 [85160aa8] (006/133) Accurately ripped
14 [e366fbf4] (006/133) Accurately ripped
15 [0611682e] (006/134) Accurately ripped
16 [b842a335] (006/130) Accurately ripped
Offsetted by -646:
01 [22354218] (000/132) No match (V2 was not tested)
02 [59e1a5f8] (000/134) No match (V2 was not tested)
03 [85006525] (000/133) No match (V2 was not tested)
04 [a80e2248] (000/133) No match (V2 was not tested)
05 [2008a6ce] (000/132) No match (V2 was not tested)
06 [7d82d212] (000/133) No match (V2 was not tested)
07 [6af05d22] (000/134) No match (V2 was not tested)
08 [ba3d8d3e] (000/131) No match (V2 was not tested)
09 [9f187529] (000/131) No match (V2 was not tested)
10 [a4b159fa] (000/133) No match (V2 was not tested)
11 [1e174f96] (000/134) No match (V2 was not tested)
12 [99a54d4d] (000/134) No match (V2 was not tested)
13 [068ef670] (000/133) No match (V2 was not tested)
14 [022af934] (000/133) No match (V2 was not tested)
15 [a9bf32d6] (000/134) No match (V2 was not tested)
16 [a91614e1] (000/130) No match (V2 was not tested)
Offsetted by 6:
01 [c4faa130] (000/132) No match
02 [27fdf258] (000/134) No match
03 [8d89db21] (000/133) No match
04 [42df6d98] (000/133) No match
05 [19e867de] (000/132) No match
06 [db1c02de] (000/133) No match
07 [003adade] (000/134) No match
08 [73d65e52] (000/131) No match
09 [8fa4e825] (000/131) No match
10 [c7dcc742] (000/133) No match
11 [c1c9b5ba] (000/134) No match
12 [5f3518d5] (000/134) No match
13 [ef046038] (000/133) No match
14 [d38d2674] (000/133) No match
15 [2d78037e] (000/134) No match
16 [9ec0438d] (000/130) No match (V2 was not tested)

Track Peak [ CRC32 ] [W/O NULL] [ LOG ]
– 99,9 [B78D2881] [5D665BD7]
01 99,9 [DCE1610D] [A541CC0E] CRC32
02 99,9 [3197597A] [89DF3C2A] CRC32
03 99,9 [DA3C513A] [434BE194] CRC32
04 94,0 [35361981] [51264717] CRC32
05 99,9 [1315628B] [09482A09] CRC32
06 94,4 [B3C2027C] [A01E438A] CRC32
07 99,9 [0028A3BC] [9C04ECAC] CRC32
08 89,1 [1DBB7DE7] [ED18B956] CRC32
09 94,0 [19A4FAD0] [D5D8A581] CRC32
10 99,9 [DBB8CE8B] [42E85240] CRC32
11 99,9 [663408D5] [4C2A0291] CRC32
12 95,5 [E0EB4DEA] [1B4ACEEB] CRC32
13 99,9 [B4ABF6EF] [F2AD0045] CRC32
14 88,8 [373BCCF5] [9DD09E91] CRC32
15 99,9 [400BF462] [BA93B4C4] CRC32
16 99,9 [E5CEE8E0] [1FCA9EF4] CRC32

foobar2000 1.2 / Dynamic Range Meter 1.1.1
log date: 2017-02-06 17:57:27

––––––––––––––––––––––––––––––––––––––––
Analyzed: Norah Jones / Feels Like Home (Deluxe Edition)
––––––––––––––––––––––––––––––––––––––––

DR Peak RMS Duration Track
––––––––––––––––––––––––––––––––––––––––
DR7 0.00 dB -10.21 dB 3:21 01-Sunrise
DR7 0.00 dB -9.46 dB 3:30 02-What Am I To You?
DR8 0.00 dB -10.40 dB 3:23 03-Those Sweet Words
DR10 -0.53 dB -13.63 dB 3:12 04-Carnival Town
DR8 0.00 dB -10.47 dB 4:07 05-In The Morning
DR7 -0.50 dB -9.74 dB 3:29 06-Be Here To Love Me
DR7 0.00 dB -9.66 dB 3:04 07-Creepin' In
DR7 -1.00 dB -10.35 dB 3:47 08-Toes
DR10 -0.53 dB -13.04 dB 4:36 09-Humble Me
DR7 0.00 dB -9.10 dB 3:44 10-Above Ground
DR11 0.00 dB -13.41 dB 3:13 11-The Long Way Home
DR8 -0.40 dB -11.43 dB 3:52 12-The Prettiest Thing
DR12 0.00 dB -15.93 dB 3:08 13-Don't Miss You At All
DR8 -1.03 dB -12.18 dB 4:15 14-Sleepless Nights
DR9 0.00 dB -12.25 dB 2:45 15-Moon Song
DR11 0.00 dB -15.73 dB 3:01 16-I Turned Your Picture To The Wall
––––––––––––––––––––––––––––––––––––––––

Number of tracks: 16
Official DR value: DR9

Samplerate: 44100 Hz
Channels: 2
Bits per sample: 16
Bitrate: 671 kbps
Codec: FLAC
================================================================================


Norah Jones - Feels Like Home (2004) Deluxe Edition with Bonus DVD [Re-Up]

Norah Jones - Feels Like Home (2004) Deluxe Edition with Bonus DVD [Re-Up]

Norah Jones - Feels Like Home (2004) Deluxe Edition with Bonus DVD [Re-Up]

Norah Jones - Feels Like Home (2004) Deluxe Edition with Bonus DVD [Re-Up]

Norah Jones - Feels Like Home (2004) Deluxe Edition with Bonus DVD [Re-Up]

Norah Jones - Feels Like Home (2004) Deluxe Edition with Bonus DVD [Re-Up]

Norah Jones - Feels Like Home (2004) Deluxe Edition with Bonus DVD [Re-Up]

Norah Jones - Feels Like Home (2004) Deluxe Edition with Bonus DVD [Re-Up]

Norah Jones - Feels Like Home (2004) Deluxe Edition with Bonus DVD [Re-Up]


DVD Content:

DVD-01. In The Morning (Live) - 5:16
DVD-02. She (Live) - 5:00
DVD-03. The Long Way Home (Live) - 3:43
DVD-04. Creepin' In (Live) - 4:22
DVD-05. Sunrise - 3:32
DVD-06. What Am I To You? - 3:36
DVD-07. Interview - 17:29


Norah Jones - Feels Like Home (2004) Deluxe Edition with Bonus DVD [Re-Up]

Norah Jones - Feels Like Home (2004) Deluxe Edition with Bonus DVD [Re-Up]