Subcategories

Olga Peretyatko, Miguel Gómez-Martínez, Münchner Rundfunkorchester - La bellezza del canto (2011)

Posted By: ArlegZ
Olga Peretyatko, Miguel Gómez-Martínez, Münchner Rundfunkorchester - La bellezza del canto (2011)

Olga Peretyatko, Miguel Gómez-Martínez, Münchner Rundfunkorchester - La bellezza del canto (2011)
EAC | FLAC | Image (Cue & Log) ~ 351 Mb | Total time: 70:24 | Scans included
Classical | Label: Sony | # 88697785442 | Recorded: 2010

Operatic powerhouse Olga Peretyatko is accompanied by the Munchner Rundfunkorchester (Munich Radio Orchestra) conducted by Miguel Gomez-Martinez on this high-quality album of (coloratura) soprano favorites. With an able, keen orchestra behind her, Peretyatko is free to demonstrate her considerable talents. Two arias are by opera legend Rossini. One, his "Non si dà follia maggiore," begins the album, and Peretyatko interprets it in a way that leaves the listener entranced. Peretyatko's voice is clean, bright, and full of vibrato. Her interpretation is also highly dramatic. "Canzone del salice" is an even better Rossini choice for the artist, for it begins with a delicate harp and then shows off the core to Peretyatko's smooth, legato sound. Her melismas are not out of control, in keeping with the character of the piece, and there is a lovely trill on "caldi." Despite being a coloratura soprano, Peretyatko's low voice is particularly nice, with depth and color. One can hear this in arias like Dvorák's "Song to the Moon" or Donizetti's "Quel guardo il cavaliere." Where one can hear her true coloratura prowess is on pieces like "Les oiseaux dans la charmille," where the aria shows off her agility as she glides between high and low notes, and her melisma on a piano dynamic demonstrates her excellent technique. The coloratura classic "Caro Nome" is another great example of her fach, for she lightens phrases and notes in such a way that the listener will be amazed by her tremendous vocal control. She brings a rich, fullness to the aria, which is what makes her particular interpretation unique. The overall choice of repertoire on the album is excellent, for it spans a range of composers, languages, and moods that are all well suited to Peretyatko's voice and vocal personality.
–V. Vasan

Performer:
Olga Peretyatko, soprano
Münchner Rundfunkorchester
Miguel Gómez-Martínez, conductor

Track List:
Gioachino Rossini (1792-1868)
01. Il Turco in Italia: Non si da follia maggiore
Gaetano Donizetti (1797-1848)
02. Don Pasquale: Quel guardo il cavaliere
03. L'elisir d'amore: Prendi per me sei libero
04. Linda di Chamonix: O luce di quest' anima
05. Lucia di Lammermoor: Regnava nel silenzio…Quando rapito in estasi
Gioachino Rossini (1792-1868)
06. Otello: Canzone del salice
Giuseppe Verdi (1813-1901)
07. Rigoletto: Caro nome
Jules Massenet (1842-1912)
08. Manon: Je marche sur les chemins
Jacques Offenbach (1819-1880)
09. Contes d'Hoffmann: Les oiseaux dans la charnille
Antonín Dvořák (1841-1904)
10. Rusalka: Mesícku na nebi hlubokém 'Song to the Moon'
Giacomo Puccini (1858-1924)
11. La Rondine: Chi il bel sogno di Doretta
Johann Strauss II (1825-1899)
12. Die Fledermaus: Mein Herr Marquis


Exact Audio Copy V1.3 from 2. September 2016

Отчёт EAC об извлечении, выполненном 15. января 2020, 23:18

Olga Peretyatko, Mьnchner Rundfunkorchester, Miguel Бngel Gуmez-Martнnez / La bella lirica

Дисковод: ASUS BW-16D1H-U Adapter: 1 ID: 0

Режим чтения : Достоверность
Использование точного потока : Да
Отключение кэша аудио : Да
Использование указателей C2 : Нет

Коррекция смещения при чтении : 6
Способность читать области Lead-in и Lead-out : Нет
Заполнение пропущенных сэмплов тишиной : Да
Удаление блоков с тишиной в начале и конце : Нет
При вычислениях CRC использовались нулевые сэмплы : Да
Интерфейс : Встроенный Win32-интерфейс для Win NT/2000

Выходной формат : Пользовательский кодировщик
Выбранный битрейт : 128 kBit/s
Качество : Высокий
Добавление ID3-тега : Нет
Утилита сжатия : C:\Program Files (x86)\Exact Audio Copy 1.3\Flac\flac.exe
Дополнительные параметры : -V -8 -T "Date=%year%" -T "Genre=%genre%" %source%


TOC извлечённого CD

Трек | Старт | Длительность | Начальный сектор | Конечный сектор
––––––––––––––––––––––––––––––––––-
1 | 0:00.00 | 3:28.00 | 0 | 15599
2 | 3:28.00 | 6:13.00 | 15600 | 43574
3 | 9:41.00 | 5:30.00 | 43575 | 68324
4 | 15:11.00 | 5:26.00 | 68325 | 92774
5 | 20:37.00 | 8:42.00 | 92775 | 131924
6 | 29:19.00 | 10:59.00 | 131925 | 181349
7 | 40:18.00 | 5:15.00 | 181350 | 204974
8 | 45:33.00 | 5:26.00 | 204975 | 229424
9 | 50:59.00 | 6:14.00 | 229425 | 257474
10 | 57:13.00 | 6:07.00 | 257475 | 284999
11 | 63:20.00 | 3:27.00 | 285000 | 300524
12 | 66:47.00 | 3:37.00 | 300525 | 316799


Характеристики диапазона извлечения и сообщения об ошибках

Выбранный диапазон

Имя файла D:\EAC\New2020\Olga Peretyatko - La bella lirica 2011\Olga Peretyatko, Munchner Rundfunkorchester, Miguel Gуmez-Martinez - La bella lirica.wav

Пиковый уровень 98.8 %
Скорость извлечения 8.2 X
Качество диапазона 99.9 %
CRC теста 1E082747
CRC копии 1E082747
Копирование… OK

Ошибок не произошло


AccurateRip: сводка

Трек 1 : извлечено точно (доверие 22) [56EE0D6F] (AR v2)
Трек 2 : извлечено точно (доверие 22) [75F5287F] (AR v2)
Трек 3 : извлечено точно (доверие 22) [6F82F660] (AR v2)
Трек 4 : извлечено точно (доверие 22) [912DBDDC] (AR v2)
Трек 5 : извлечено точно (доверие 22) [7B560243] (AR v2)
Трек 6 : извлечено точно (доверие 22) [DE65129C] (AR v2)
Трек 7 : извлечено точно (доверие 22) [77F11958] (AR v2)
Трек 8 : извлечено точно (доверие 22) [713AEF5B] (AR v2)
Трек 9 : извлечено точно (доверие 22) [FE62DB95] (AR v2)
Трек 10 : извлечено точно (доверие 22) [2F0FB5EB] (AR v2)
Трек 11 : извлечено точно (доверие 22) [49FBAE1B] (AR v2)
Трек 12 : извлечено точно (доверие 22) [C20A394C] (AR v2)

Все треки извлечены точно

Конец отчёта

–– CUETools DB Plugin V2.1.6

[CTDB TOCID: vtVI3BcL9qMd4blhEhxnpMQwazw-] found
Submit result: vtVI3BcL9qMd4blhEhxnpMQwazw- has been confirmed
Track | CTDB Status
1 | (26/26) Accurately ripped
2 | (26/26) Accurately ripped
3 | (26/26) Accurately ripped
4 | (26/26) Accurately ripped
5 | (26/26) Accurately ripped
6 | (26/26) Accurately ripped
7 | (26/26) Accurately ripped
8 | (26/26) Accurately ripped
9 | (26/26) Accurately ripped
10 | (26/26) Accurately ripped
11 | (26/26) Accurately ripped
12 | (26/26) Accurately ripped


==== Контрольная сумма отчёта BEE8FA96B3829F1530EFFF6284E150389CFCA5E31A03E894D4564178E19DB098 ====

Olga Peretyatko, Miguel Gómez-Martínez, Münchner Rundfunkorchester - La bellezza del canto (2011)

Thanks to the original releaser