Tags
Language
Tags

Olivia Newton-John - Don't Stop Believin' (1976) [1998, Digitally Remastered]

Posted By: BlondStyle
Olivia Newton-John - Don't Stop Believin' (1976) [1998, Digitally Remastered]

Olivia Newton-John - Don't Stop Believin' (1976) [1998, Digitally Remastered]
Pop/Rock, Country | EAC Rip | FLAC, Img+CUE+LOG+Scans (PNG) | 34:24 Min | 396,63 Mb
Label: Warner Music Australia (AU) | Cat.# D36023 (D21039) | Released: 1998-11-24 (1976-10-30)
Olivia Newton-John - Don't Stop Believin' (1976) [1998, Digitally Remastered]

"Don't Stop Believin' is an album by Olivia Newton-John, released in 1976 and her first to be recorded in Nashville. The album was certified Gold by the RIAA and peaked at #33 on the US Pop chart and #7 on the US Country chart, and became her third chart-topping album in the Netherlands. The first single was the title track which peaked at #33 on the Hot 100 and #1 Adult Contemporary. "Every Face Tells a Story" ended Olivia's streak of seven consecutive #1 AC hits from 1974's "I Honestly Love You" through 1976's "Don't Stop Believin'". "Every Face..." also ended her streak of nine Top 40 hits in a row with its #55 peak. 1977's "Sam" was Olivia's highest-charting hit on the Hot 100 since the #13 peak of "Something Better to Do" in 1975, and was also her seventh Dutch chart-topping single. "Don't Stop Believin'", "Compasionate Man" and "Sam" were all released as singles to promote the album in Japan. A live album recorded on the promotional tour for "Don't Stop Believin'", "Love Performance", was released in Japan in 1981, the LP sold 123,590 and the cassete 10,600 copies there.
~Wikipedia

Olivia Newton-John - Don't Stop Believin' (1976) [1998, Digitally Remastered]

Olivia Newton-John - Don't Stop Believin' (1976) [1998, Digitally Remastered]

Olivia Newton-John - Don't Stop Believin' (1976) [1998, Digitally Remastered]




Release of the album: 1976, October, 30 [LP EMI Records Ltd., Cat.# EMC 3162, UK]
Release of this CD: 1998, November, 24 [CD Warner Music Australia (AU), Cat.# D36023 (D21039) / UPC: 9399602103921]
℗ 1976 EMI Records Ltd, England
© 1998 Festival Records Pty Ltd. (Aust)
Manufactured and Distributed by Warner Music Australia
A Warner Music Group Company


Notes: Re-Mastering 1998 Festival Records Australia.
Re-Mastering Supervisor - Glenn "MAGOO" Aird.
Re-Mastering Engineer - William Bowden.

Olivia Newton-John - Don't Stop Believin' (1976) [1998, Digitally Remastered]

Credits:

Acoustic Guitar – Chris Christian, John Farrar, Steve Gibson
Arranged By [Strings] – Bergen White
Art Direction – George Osaki
Backing Vocals – Donna Fein, John Farrar, Lisa Silver, Muffy Hendrix, Olivia Newton-John
Bass Guitar – Joe Osborn
Bass Vocals – Hurshel Wiginton (tracks: B4)
Clavinet – Warren Oates (tracks: 4)
Drums, Percussion – Larrie Londin
Electric Guitar – John Farrar
Engineer [Assistant] – George Tutko
Engineer [Mixing] – Bill Schnee
Engineer [Recording] – Brent Maher
Harmonica – Charlie McCoy (tracks: 9)
Keyboards – Shane Keister
Mastered By – Mike Reese
Other [Stylist] – Fleur Thiemeyer
Photography By (Black And White) – Jeff Dunas
Photography By (Color Photos) – Charles Bush
Producer – John Farrar
Steel Guitar – Weldon Myrick (tracks: 5)
Strings – The Shelly Kurland String Section


Tracklist:

01. Don't Stop Believin' (03:34)
(John Farrar)
02. A Thousand Conversations (02:59)
(Bruce Welch, Hank Marvin)
03. Compassionate Man (03:21)
(John Farrar, Chris Christian)
04. New-Born Babe (03:20)
(Glenn Cardier)
05. Hey Mr. Dreammaker (04:06)
(Bruce Welch, Alan Tarney)
06. Every Face Tells A Story (03:38)
(Michael Allison, Peter Sills, Don Black)
07. Sam (03:44)
(John Farrar, Hank Marvin, Don Black)
08. Love You Hold The Key (02:32)
(Olivia Newton-John, John Farrar)
09. I'll Bet You A Kangaroo (03:36)
(Larry Murray)
10. The Last Time You Loved (03:35)
(Brian Neary)

Exact Audio Copy V1.3 from 2. September 2016

EAC extraction logfile from 8. December 2018, 22:28

Olivia Newton-John / Don't Stop Believin'

Used drive : PIONEER BD-RW BDR-208D Adapter: 1 ID: 0

Read mode : Secure
Utilize accurate stream : Yes
Defeat audio cache : Yes
Make use of C2 pointers : No

Read offset correction : 667
Overread into Lead-In and Lead-Out : No
Fill up missing offset samples with silence : Yes
Delete leading and trailing silent blocks : No
Null samples used in CRC calculations : Yes
Used interface : Native Win32 interface for Win NT & 2000

Used output format : Internal WAV Routines
Sample format : 44.100 Hz; 16 Bit; Stereo


TOC of the extracted CD

Track | Start | Length | Start sector | End sector
––––––––––––––––––––––––––––-
1 | 0:00.00 | 3:33.57 | 0 | 16031
2 | 3:33.57 | 2:58.68 | 16032 | 29449
3 | 6:32.50 | 3:21.12 | 29450 | 44536
4 | 9:53.62 | 3:20.23 | 44537 | 59559
5 | 13:14.10 | 4:05.40 | 59560 | 77974
6 | 17:19.50 | 3:38.12 | 77975 | 94336
7 | 20:57.62 | 3:43.38 | 94337 | 111099
8 | 24:41.25 | 2:31.55 | 111100 | 122479
9 | 27:13.05 | 3:35.40 | 122480 | 138644
10 | 30:48.45 | 3:35.02 | 138645 | 154771


Range status and errors

Selected range

Filename D:\BlondStyle\Don't Stop Believin'.wav

Peak level 99.9 %
Extraction speed 6.2 X
Range quality 100.0 %
Test CRC 82A2F60E
Copy CRC 82A2F60E
Copy OK

No errors occurred


AccurateRip summary

Track 1 accurately ripped (confidence 8) [343EA828] (AR v2)
Track 2 accurately ripped (confidence 8) [614FB40E] (AR v2)
Track 3 accurately ripped (confidence 8) [8F26CC7B] (AR v2)
Track 4 accurately ripped (confidence 8) [EDEB81D8] (AR v2)
Track 5 accurately ripped (confidence 8) [7F19E216] (AR v2)
Track 6 accurately ripped (confidence 8) [5D49E1FA] (AR v2)
Track 7 accurately ripped (confidence 8) [88C9CE94] (AR v2)
Track 8 accurately ripped (confidence 8) [28C60F20] (AR v2)
Track 9 accurately ripped (confidence 8) [A347C86B] (AR v2)
Track 10 accurately ripped (confidence 8) [4F9D39ED] (AR v2)

All tracks accurately ripped

End of status report

–– CUETools DB Plugin V2.1.6

[CTDB TOCID: Dc2NZmsrnhhbE9IDcT2chv.wrDU-] found
Submit result: Dc2NZmsrnhhbE9IDcT2chv.wrDU- has been confirmed
Track | CTDB Status
1 | (14/14) Accurately ripped
2 | (14/14) Accurately ripped
3 | (14/14) Accurately ripped
4 | (14/14) Accurately ripped
5 | (14/14) Accurately ripped
6 | (14/14) Accurately ripped
7 | (14/14) Accurately ripped
8 | (14/14) Accurately ripped
9 | (14/14) Accurately ripped
10 | (14/14) Accurately ripped


==== Log checksum D4DED1C7E0397E4ADFB428DAA8F88C64ED77604E35AE07DD69020EFA4DAED90D ====

[Disc ID: 000cf3f8-0067d49a-87080f0a]
Track [ CRC ] Status
01 [dba095ba] (09/17) Accurately ripped as in pressing(s) #1
02 [9708f3ac] (09/17) Accurately ripped as in pressing(s) #1
03 [323d47e6] (09/17) Accurately ripped as in pressing(s) #1
04 [7c326f05] (09/17) Accurately ripped as in pressing(s) #1
05 [487325e2] (09/17) Accurately ripped as in pressing(s) #1
06 [2351c4bd] (09/17) Accurately ripped as in pressing(s) #1
07 [c475498e] (09/17) Accurately ripped as in pressing(s) #1
08 [aa27264b] (09/17) Accurately ripped as in pressing(s) #1
09 [4764027b] (09/17) Accurately ripped as in pressing(s) #1
10 [9b161fc0] (09/17) Accurately ripped as in pressing(s) #1

––––––––––––––––––––––––––––––––––––––––
Analyzed: Olivia Newton-John / Don't Stop Believin'
––––––––––––––––––––––––––––––––––––––––

DR Peak RMS Duration Track
––––––––––––––––––––––––––––––––––––––––
DR7 -0.58 dB -10.58 dB 3:34 01-Don't Stop Believin'
DR10 -0.67 dB -13.78 dB 2:59 02-A Thousand Conversations
DR8 -0.53 dB -10.72 dB 3:21 03-Compassionate Man
DR9 -0.68 dB -14.46 dB 3:20 04-New-Born Babe
DR8 -0.59 dB -11.44 dB 4:06 05-Hey Mr. Dreammaker
DR9 -0.64 dB -11.31 dB 3:38 06-Every Face Tells A Story
DR8 -0.37 dB -11.15 dB 3:44 07-Sam
DR10 0.00 dB -11.79 dB 2:32 08-Love You Hold The Key
DR9 -0.51 dB -12.22 dB 3:36 09-I'll Bet You A Kangaroo
DR9 -0.40 dB -13.06 dB 3:35 10-The Last Time You Loved
––––––––––––––––––––––––––––––––––––––––

Number of tracks: 10
Official DR value: DR9

Samplerate: 44100 Hz
Channels: 2
Bits per sample: 16
Bitrate: 937 kbps
Codec: FLAC
================================================================================

See also:

♫~Welcome To My Blog~♫

password: BlondStyle