Tags
Language
Tags

Olivia Newton-John - Olivia (1972) [1998, Digitally Remastered] *Re-Up*

Posted By: BlondStyle
Olivia Newton-John - Olivia (1972) [1998, Digitally Remastered] *Re-Up*

Olivia Newton-John - Olivia (1972) [1998, Digitally Remastered]
Pop/Rock, Country | EAC Rip | FLAC, Img+CUE+LOG+Scans (PNG) | 40:45 Min | 404,97 Mb
Label: Warner Music Australia (AU) | Cat.# D34658 (D21034) | Released: 1998-10-03 (1972)
Olivia Newton-John - Olivia (1972) [1998, Digitally Remastered] *Re-Up*

"Olivia" is the second album by the singer Olivia Newton-John. Two of its songs were released as singles ("What Is Life" and "My Old Man's Got a Gun"). In its initial release, it was not issued in the United States, though it was sold there as an import. Not released in the United States, "Olivia" contains 14 tracks, including covers of Bread's "Everything I Own", George Harrison's "What Is Life" (US #34 Adult Contemporary, Billboard) and "Behind That Locked Door", and Merrilee Rush's "Angel of the Morning". "Olivia" was a commercial failure when released in the UK on Pye International in 1972, as the follow-up to 1971's If Not for You. An American release of the LP never materialized. Therefore, the record label did not want to risk a release of the album in the United States on Uni Records, her US label at the time. Newton-John's subsequent release, Let Me Be There, would reach a sales position (UK Chart: 37) that would earn it the certification "Gold". The cover art, done in blue tint, was later used (in a blueish-green tint) as the cover of the US release of Let Me Be There on MCA Records in 1973, following the success of the hit single penned by John Rostill.
~Wikipedia

Olivia Newton-John - Olivia (1972) [1998, Digitally Remastered] *Re-Up*

Olivia Newton-John - Olivia (1972) [1998, Digitally Remastered] *Re-Up*




Release of the album: 1972 [LP Pye International, Cat.# NSPL28168, UK]
Release of this CD: 1998, October, 3 [CD Warner Music Australia (AU), Cat.# D34658 (D21034) / UPC: 9399602103426]
Note: Re-Mastering 1998 Festival Records Australia
Manufactured and Distributed by Warner Music Australia
A Warner Music Group Company

Credits:

Arranged By [Strings] – Nick Ingman
Bass – Alan Tarney, Dave Richmond
Drums, Percussion – Brian Bennett, Trevor Spencer
Engineer – Peter Vince, Richard Lush
Guitar – John Farrar, Kevin Peek
Keyboards – Dave MacRae, Tweed Harris
Producer, Arranged By – Bruce Welch, John Farrar
Re-Mastering Supervisor - Glenn "MAGOO" Aird
Re-Mastering Engineer - William Bowden


Tracklist:

01. "Angel Of The Morning" (03:55)
(Chip Taylor)
02. "Just A Little Too Much" (02:07)
(Johnny Burnette)
03. "If We Only Have Love" (03:22)
(Eric Blau, Jacques Brel, Mort Shuman)
04. "Winterwood" (02:48)
(Don McLean)
05. "My Old Man's Got A Gun" (02:49)
(John Farrar)
06. "Changes" (02:31)
(Olivia Newton-John)
07. "I'm A Small And Lonely Light" (02:44)
(John Farrar, Peter Best)
08. "Why Don't You Write Me" (02:39)
(Paul Simon)
09. "Mary Skeffington" (02:29)
(Gerry Rafferty)
10. "Behind That Locked Door" (03:06)
(George Harrison)
11. "What Is Life" (03:21)
(George Harrison)
12. "Everything I Own" (03:01)
(David Gates)
13. "Living In Harmony" (02:47)
(Alan Tarney, Trevor Spencer)
14. "I Will Touch You" (03:06)
(Steve Cagan)

Exact Audio Copy V1.0 beta 3 from 29. August 2011

EAC extraction logfile from 19. August 2016, 22:08

Olivia Newton-John / Olivia

Used drive : PIONEER BD-RW BDR-208D Adapter: 1 ID: 0

Read mode : Secure
Utilize accurate stream : Yes
Defeat audio cache : Yes
Make use of C2 pointers : No

Read offset correction : 667
Overread into Lead-In and Lead-Out : No
Fill up missing offset samples with silence : Yes
Delete leading and trailing silent blocks : No
Null samples used in CRC calculations : Yes
Used interface : Native Win32 interface for Win NT & 2000

Used output format : Internal WAV Routines
Sample format : 44.100 Hz; 16 Bit; Stereo


TOC of the extracted CD

Track | Start | Length | Start sector | End sector
––––––––––––––––––––––––––––-
1 | 0:00.00 | 3:54.72 | 0 | 17621
2 | 3:54.72 | 2:07.28 | 17622 | 27174
3 | 6:02.25 | 3:22.32 | 27175 | 42356
4 | 9:24.57 | 2:48.33 | 42357 | 54989
5 | 12:13.15 | 2:48.70 | 54990 | 67659
6 | 15:02.10 | 2:30.47 | 67660 | 78956
7 | 17:32.57 | 2:43.60 | 78957 | 91241
8 | 20:16.42 | 2:38.58 | 91242 | 103149
9 | 22:55.25 | 2:29.12 | 103150 | 114336
10 | 25:24.37 | 3:06.03 | 114337 | 128289
11 | 28:30.40 | 3:21.22 | 128290 | 143386
12 | 31:51.62 | 3:00.68 | 143387 | 156954
13 | 34:52.55 | 2:47.07 | 156955 | 169486
14 | 37:39.62 | 3:05.58 | 169487 | 183419


Range status and errors

Selected range

Filename D:\BlondStyle\Olivia Newton-John - Olivia.wav

Peak level 99.9 %
Extraction speed 6.7 X
Range quality 100.0 %
Test CRC E041A845
Copy CRC E041A845
Copy OK

No errors occurred


AccurateRip summary

Track 1 accurately ripped (confidence 4) [4438BCDA] (AR v2)
Track 2 accurately ripped (confidence 4) [6658A76B] (AR v2)
Track 3 accurately ripped (confidence 4) [15B14D4C] (AR v2)
Track 4 accurately ripped (confidence 4) [FE85D7CF] (AR v2)
Track 5 accurately ripped (confidence 4) [F0CAE3DD] (AR v2)
Track 6 accurately ripped (confidence 4) [A423D26D] (AR v2)
Track 7 accurately ripped (confidence 4) [314E2816] (AR v2)
Track 8 accurately ripped (confidence 4) [32BFA88B] (AR v2)
Track 9 accurately ripped (confidence 4) [E8E25551] (AR v2)
Track 10 accurately ripped (confidence 4) [86CB194B] (AR v2)
Track 11 accurately ripped (confidence 4) [8623C7A3] (AR v2)
Track 12 accurately ripped (confidence 4) [68E19831] (AR v2)
Track 13 accurately ripped (confidence 4) [9E9F22AC] (AR v2)
Track 14 accurately ripped (confidence 4) [DB1688F1] (AR v2)

All tracks accurately ripped

End of status report

–– CUETools DB Plugin V2.1.3

[CTDB TOCID: mIWY4Tha7nqpQ.AHhpL0wIZJ_H4-] found, Submit result: mIWY4Tha7nqpQ.AHhpL0wIZJ_H4- has been confirmed
[360ba70d] (11/11) Accurately ripped


==== Log checksum B4B9F2F09F8B76287ACDF6503BD41931034122A62716AFD41828085BB583BBCF ====

[Disc ID: 00150ad5-00df0ce6-b0098d0e]
Track [ CRC ] Status
01 [43fcb3af] (12/16) Accurately ripped as in pressing(s) #1
02 [bff7abd9] (12/16) Accurately ripped as in pressing(s) #1
03 [cc29434b] (12/16) Accurately ripped as in pressing(s) #1
04 [33e8d7f9] (12/16) Accurately ripped as in pressing(s) #1
05 [ed9d85fd] (12/16) Accurately ripped as in pressing(s) #1
06 [6e3fa025] (11/15) Accurately ripped as in pressing(s) #1
07 [f547bc61] (11/15) Accurately ripped as in pressing(s) #1
08 [692b5ac7] (11/15) Accurately ripped as in pressing(s) #1
09 [19df2a02] (11/15) Accurately ripped as in pressing(s) #1
10 [ded4fbb3] (11/15) Accurately ripped as in pressing(s) #1
11 [ab583336] (11/15) Accurately ripped as in pressing(s) #1
12 [f9ea2a16] (11/15) Accurately ripped as in pressing(s) #1
13 [bb1ce675] (11/15) Accurately ripped as in pressing(s) #1
14 [9b82f1dd] (11/15) Accurately ripped as in pressing(s) #1

foobar2000 1.3.9 / Dynamic Range Meter 1.1.1
log date: 2016-08-19 22:24:38

––––––––––––––––––––––––––––––––––––––––
Analyzed: Olivia Newton-John / Olivia
––––––––––––––––––––––––––––––––––––––––

DR Peak RMS Duration Track
––––––––––––––––––––––––––––––––––––––––
DR7 -0.67 dB -11.41 dB 3:55 01-Angel Of The Morning
DR9 -1.06 dB -11.81 dB 2:07 02-Just A Little Too Much
DR8 -0.27 dB -12.28 dB 3:22 03-If We Only Have Love
DR7 -3.09 dB -12.12 dB 2:48 04-Winterwood
DR8 -0.70 dB -10.91 dB 2:49 05-My Old Man's Got A Gun
DR9 -0.72 dB -13.43 dB 2:31 06-Changes
DR9 -0.72 dB -12.93 dB 2:44 07-I'm A Small And Lonely Light
DR9 -0.43 dB -10.60 dB 2:39 08-Why Don't You Write Me
DR9 -0.43 dB -10.58 dB 2:29 09-Mary Skeffington
DR9 -0.83 dB -11.52 dB 3:06 10-Behind That Locked Door
DR7 -1.42 dB -10.28 dB 3:21 11-What Is Life
DR8 0.00 dB -11.70 dB 3:01 12-Everything I Own
DR10 -0.42 dB -11.39 dB 2:47 13-Living In Harmony
DR11 -1.21 dB -14.03 dB 3:06 14-I Will Touch You
––––––––––––––––––––––––––––––––––––––––

Number of tracks: 14
Official DR value: DR9

Samplerate: 44100 Hz
Channels: 2
Bits per sample: 16
Bitrate: 880 kbps
Codec: FLAC
================================================================================

See also:

♫~Welcome To My Blog~♫

password: BlondStyle