Tags
Language
Tags

Olivia Newton-John - Love Songs (1988) *Re-Up* *New Rip*

Posted By: BlondStyle
Olivia Newton-John - Love Songs (1988) *Re-Up* *New Rip*

Olivia Newton-John - Love Songs (1988)
Pop/Rock, Country | EAC Rip | FLAC, Img+CUE+LOG+Scans (PNG) | 55:31 Min | 396,07 Mb
Label: Music For Pleasure/EMI (UK) | Cat.# MFP-6042 (CDB 7 90722 2) | Released: 1988
Olivia Newton-John - Love Songs (1988) *Re-Up* *New Rip*

"Love Songs" released in 1988 by UK Music For Pleasure is a 17-track compilation, includes Olivia's most romantic songs of the 70's as like as "Please Mr Please", "I Honestly Love You", "Angel Of The Morning" and "God Only Knows".

Olivia Newton-John - Love Songs (1988) *Re-Up* *New Rip*

Olivia Newton-John - Love Songs (1988) *Re-Up* *New Rip*




Release of the album: 1988, [LP EMI Records, Cat.# MFP-5839, UK]
Release of this CD: 1988 [CD Music For Pleasure/EMI (UK), Cat.# MFP-6042 (CDB 7 90722 2) / UPC: 077779072224]
℗ Original sound recordings made by Festival Records International Ltd.
except * made by EMI Record Ltd.
This compilation ℗ 1988 Music for Pleasure.
Distributed by EMI Records Limited Hayes Middlesex England.
Made in UK


Notes: AAD, Original Sound Recordings.

Tracklist:

01. Please Mr Please (03:25)
02. Have You Never Been Mellow (03:31)
03. If (02:28)
04. Angel Of The Morning (03:55)
05. Behind That Locked Door (03:07)
06. God Only Knows (02:47)
07. Love Song (03:40)
08. No Regrets (03:29)
09. If You Could Read My Mind (03:42)
10. I Honestly Love You (03:38)
11. Amoureuse (03:38)
12. Where Are We Going To My Love (03:24)
13. Lullaby (03:00)
14. I Will Touch You (03:07)
15. Winterwood (02:50)
16. If We Only Have Love (03:22)
17. Changes (02:30)

Exact Audio Copy V1.3 from 2. September 2016

EAC extraction logfile from 27. October 2018, 8:07

Olivia Newton-John / Love Songs

Used drive : PIONEER BD-RW BDR-208D Adapter: 1 ID: 0

Read mode : Secure
Utilize accurate stream : Yes
Defeat audio cache : Yes
Make use of C2 pointers : No

Read offset correction : 667
Overread into Lead-In and Lead-Out : No
Fill up missing offset samples with silence : Yes
Delete leading and trailing silent blocks : No
Null samples used in CRC calculations : Yes
Used interface : Native Win32 interface for Win NT & 2000

Used output format : Internal WAV Routines
Sample format : 44.100 Hz; 16 Bit; Stereo


TOC of the extracted CD

Track | Start | Length | Start sector | End sector
––––––––––––––––––––––––––––-
1 | 0:00.33 | 3:24.45 | 33 | 15377
2 | 3:25.03 | 3:31.15 | 15378 | 31217
3 | 6:56.18 | 2:27.70 | 31218 | 42312
4 | 9:24.13 | 3:54.52 | 42313 | 59914
5 | 13:18.65 | 3:06.38 | 59915 | 73902
6 | 16:25.28 | 2:47.17 | 73903 | 86444
7 | 19:12.45 | 3:39.53 | 86445 | 102922
8 | 22:52.23 | 3:28.70 | 102923 | 118592
9 | 26:21.18 | 3:41.50 | 118593 | 135217
10 | 30:02.68 | 3:37.60 | 135218 | 151552
11 | 33:40.53 | 3:38.32 | 151553 | 167934
12 | 37:19.10 | 3:23.38 | 167935 | 183197
13 | 40:42.48 | 3:00.15 | 183198 | 196712
14 | 43:42.63 | 3:06.50 | 196713 | 210712
15 | 46:49.38 | 2:50.00 | 210713 | 223462
16 | 49:39.38 | 3:22.00 | 223463 | 238612
17 | 53:01.38 | 2:29.70 | 238613 | 249857


Range status and errors

Selected range

Filename D:\BlondStyle\Olivia Newton-John - Love Songs.wav

Peak level 100.0 %
Extraction speed 6.8 X
Range quality 100.0 %
Test CRC E685ADC5
Copy CRC E685ADC5
Copy OK

No errors occurred


AccurateRip summary

Track 1 accurately ripped (confidence 7) [EB0458DE] (AR v2)
Track 2 accurately ripped (confidence 8) [5E2A144C] (AR v2)
Track 3 accurately ripped (confidence 8) [5DEFE06F] (AR v2)
Track 4 accurately ripped (confidence 8) [A5B27898] (AR v2)
Track 5 accurately ripped (confidence 8) [977BEBFF] (AR v2)
Track 6 accurately ripped (confidence 8) [56E0DCD2] (AR v2)
Track 7 accurately ripped (confidence 8) [1228C9F4] (AR v2)
Track 8 accurately ripped (confidence 8) [AB0A8A60] (AR v2)
Track 9 accurately ripped (confidence 8) [DCF0F0D3] (AR v2)
Track 10 accurately ripped (confidence 8) [3BFF4D75] (AR v2)
Track 11 accurately ripped (confidence 8) [4CE28E11] (AR v2)
Track 12 accurately ripped (confidence 8) [B4C9E322] (AR v2)
Track 13 accurately ripped (confidence 8) [4408DADE] (AR v2)
Track 14 accurately ripped (confidence 8) [F80DC524] (AR v2)
Track 15 accurately ripped (confidence 8) [41A8DAD8] (AR v2)
Track 16 accurately ripped (confidence 8) [2A95C305] (AR v2)
Track 17 accurately ripped (confidence 8) [5310A8DE] (AR v2)

All tracks accurately ripped

End of status report

–– CUETools DB Plugin V2.1.6

[CTDB TOCID: _EAsxDgLLiMtoYlQBRCr_7qmD10-] found
Submit result: _EAsxDgLLiMtoYlQBRCr_7qmD10- has been confirmed
Track | CTDB Status
1 | ( 9/18) Accurately ripped, or (1/18) differs in 3 samples @03:23:49
2 | (14/18) Accurately ripped, or (1/18) differs in 4 samples @03:30:41-03:30:42
3 | (17/18) Accurately ripped
4 | (17/18) Accurately ripped
5 | (17/18) Accurately ripped
6 | (17/18) Accurately ripped
7 | (17/18) Accurately ripped
8 | (17/18) Accurately ripped
9 | (10/18) Accurately ripped, or (5/18) differs in 1470 samples @00:17:30-00:17:32
10 | (17/18) Accurately ripped
11 | (17/18) Accurately ripped
12 | (15/18) Accurately ripped, or (1/18) differs in 56 samples @03:22:56-03:22:58
13 | (17/18) Accurately ripped
14 | (17/18) Accurately ripped
15 | (17/18) Accurately ripped
16 | (17/18) Accurately ripped
17 | (17/18) Accurately ripped
If you are sure that your rip contains errors, you can use CUETools to repair it.


==== Log checksum 5A23C0686307B26EFD26D069505A16855DD34993802E608A501DEC79AD0C3B6B ====

––––––––––––––––––––––––––––––––––––––––
Analyzed: Olivia Newton-John / Love Songs
––––––––––––––––––––––––––––––––––––––––

DR Peak RMS Duration Track
––––––––––––––––––––––––––––––––––––––––
DR11 -0.27 dB -14.68 dB 3:25 01-Please Mr Please
DR10 -0.41 dB -14.06 dB 3:31 02-Have You Never Been Mellow
DR10 -0.33 dB -13.26 dB 2:28 03-If
DR9 -0.35 dB -14.71 dB 3:55 04-Angel Of The Morning
DR10 -0.67 dB -12.55 dB 3:07 05-Behind That Locked Door
DR12 0.00 dB -14.44 dB 2:47 06-God Only Knows
DR10 -0.29 dB -13.38 dB 3:40 07-Love Song
DR12 -0.33 dB -15.09 dB 3:29 08-No Regrets
DR9 -0.79 dB -13.16 dB 3:42 09-If You Could Read My Mind
DR11 -0.51 dB -17.28 dB 3:38 10-I Honestly Love You
DR11 -0.21 dB -15.58 dB 3:38 11-Amoureuse
DR10 -0.73 dB -15.46 dB 3:24 12-Where Are You Going To, My Love
DR9 -0.54 dB -12.64 dB 3:00 13-Lullaby
DR10 -1.10 dB -13.98 dB 3:07 14-I Will Touch You
DR10 -0.71 dB -13.78 dB 2:50 15-Winterwood
DR10 0.00 dB -15.90 dB 3:22 16-If We Only Have Love
DR11 -0.70 dB -14.75 dB 2:30 17-Changes
––––––––––––––––––––––––––––––––––––––––

Number of tracks: 17
Official DR value: DR10

Samplerate: 44100 Hz
Channels: 2
Bits per sample: 16
Bitrate: 818 kbps
Codec: FLAC
================================================================================

See also:


password: BlondStyle