Tags
Language
Tags

Omar & The Howlers - Southern Style (1996)

Posted By: popsakov
Omar & The Howlers - Southern Style (1996)

Omar & The Howlers - Southern Style (1996)
EAC Rip | FLAC (Img) + Cue + Log ~ 352 Mb | MP3 CBR320 ~ 140 Mb
Full Scans | 00:48:38 | RAR 5% Recovery
Texas Blues / Modern Electric Blues / Blues Rock
Provogue Records #PRD 70952

Omar & the Howlers is a Texas based electric blues and blues rock band, formed in Hattiesburg, Mississippi in 1973 by the blues guitarist and singer Omar Kent Dykes. Three years later they moved to Austin, Texas. The band has regularly toured European countries. Omar & the Howlers has released around twenty-five successful albums on Columbia, Provogue, Ruf Records, and their current record label, Big Guitar Music.

Omar shakes up the Howlers' lineup yet again for Southern Style, yet the changes don't affect his sound much at all. Working with guitarist Stephen Bruton, bassist Paul Junior, drummer Steve Kilmer, percussionist Mark Hallman and organist Nick Connolly, Omar Dykes kicks out a set of swampy blues-rock that alternates between New Orleans grunge and tight Memphis grooves.

~ Thom Owens, All Music

***************

Omar & The Howlers - Southern Style (1996)

Track List:

01. Ton of Blues [03:38]
02. I Want You [03:26]
03. Snake Rhythm Rock [04:00]
04. Bessie Mae [03:15]
05. Full Moon On Main Street [04:53]
06. Pot Of Gold [03:13]
07. You Keep Watchin' Me [03:20]
08. Run For The Levee [04:19]
09. Burn It To The Ground [03:50]
10. Judgment Day [03:46]
11. Angel Blues [06:52]
12. Think It's Time To Go [04:11]

Exact Audio Copy V1.0 beta 3 from 29. August 2011

EAC extraction logfile from 6. December 2014, 19:38

Omar & The Howlers / Southern Style

Used drive : HL-DT-STDVD-RAM GH22NP20 Adapter: 0 ID: 0

Read mode : Secure
Utilize accurate stream : Yes
Defeat audio cache : Yes
Make use of C2 pointers : No

Read offset correction : 102
Overread into Lead-In and Lead-Out : No
Fill up missing offset samples with silence : Yes
Delete leading and trailing silent blocks : No
Null samples used in CRC calculations : Yes
Used interface : Native Win32 interface for Win NT & 2000

Used output format : User Defined Encoder
Selected bitrate : 1024 kBit/s
Quality : High
Add ID3 tag : No
Command line compressor : C:\Program Files\Exact Audio Copy\FLAC\FLAC.EXE
Additional command line options : -V -8 -T "Date=%year%" -T "Genre=%genre%" %source%


TOC of the extracted CD

Track | Start | Length | Start sector | End sector
––––––––––––––––––––––––––––-
1 | 0:00.00 | 3:37.36 | 0 | 16310
2 | 3:37.36 | 3:25.11 | 16311 | 31696
3 | 7:02.47 | 3:59.59 | 31697 | 49680
4 | 11:02.31 | 3:14.53 | 49681 | 64283
5 | 14:17.09 | 4:52.40 | 64284 | 86223
6 | 19:09.49 | 3:12.16 | 86224 | 100639
7 | 22:21.65 | 3:19.55 | 100640 | 115619
8 | 25:41.45 | 4:18.32 | 115620 | 135001
9 | 30:00.02 | 3:49.31 | 135002 | 152207
10 | 33:49.33 | 3:45.30 | 152208 | 169112
11 | 37:34.63 | 6:51.45 | 169113 | 199982
12 | 44:26.33 | 4:10.53 | 199983 | 218785


Range status and errors

Selected range

Filename D:\Rips\pmx222\Omar & The Howlers - Southern Style.wav

Peak level 100.0 %
Extraction speed 2.6 X
Range quality 100.0 %
Test CRC E087803E
Copy CRC E087803E
Copy OK

No errors occurred


AccurateRip summary

Track 1 accurately ripped (confidence 9) [4967EEBD] (AR v2)
Track 2 accurately ripped (confidence 9) [B9DAB0B5] (AR v2)
Track 3 accurately ripped (confidence 9) [0F7D928F] (AR v2)
Track 4 accurately ripped (confidence 9) [A4D2F45A] (AR v2)
Track 5 accurately ripped (confidence 9) [30666087] (AR v2)
Track 6 accurately ripped (confidence 9) [09E28916] (AR v2)
Track 7 accurately ripped (confidence 9) [DCC0D32A] (AR v2)
Track 8 accurately ripped (confidence 9) [C949DE6B] (AR v2)
Track 9 accurately ripped (confidence 9) [E33FF461] (AR v2)
Track 10 accurately ripped (confidence 9) [671A29F5] (AR v2)
Track 11 accurately ripped (confidence 9) [794C6711] (AR v2)
Track 12 accurately ripped (confidence 9) [739FBF3F] (AR v2)

All tracks accurately ripped

End of status report

==== Log checksum 32EA40052EC791FAB819D702B43BCB30DABE71420CA860BD7F385CA677D54267 ====

Omar & The Howlers - Southern Style (1996)


All thanks go to рмх222

>>> Omar & The Howlers in my Blog <<<

DOWNLOAD: