Subcategories

One Way featuring Al Hudson & Alicia Myers - The Best Of One Way (1996)

Posted By: BlondStyle
One Way featuring Al Hudson & Alicia Myers - The Best Of One Way (1996)

One Way featuring Al Hudson & Alicia Myers - The Best Of One Way (1996)
R&B, Soul/Funk, Disco | EAC Rip | FLAC, Tracks+CUE+LOG+Scans (JPEG) | 01:09:30 | 473,92 Mb
Label: MCA Records (USA) | Cat.# MCAD-11432 | Released: 1996-04-23
One Way featuring Al Hudson & Alicia Myers - The Best Of One Way (1996)

Originally, One Way came out as Al Hudson & the Soul Partners and recorded a few interesting, but unsuccessful albums for ABC Records. They were then, and are now, a self-contained act, though the original name suggests a standup vocal group. Essentially, Midwest wonders, they never crossed over, and never got as big as predicted on the R&B circuit, despite having a devastating live act. They should have added their bassist/falsetto tenor, Kevin McCord to the title; he contributes as much as Hudson & Myers, if not more. This best of compilation ignores their Al Hudson & the Soul Partner days, and is top heavy with upbeat jams. Like an even handed boxer, One Way could deliver a lethal blow with either hand, being equally as proficient on fast tunes or ballads. The slow jams take a back seat to upbeat cookers, but MCA did include "Something In the Past," and the love happy "Lady You Are" One Way's jams had the juice of a live electrical wire: "Mr. Groove," "You Can Do It," "Pop It," and "Pull Fancy Dancer Pull" represents disco at its best.
~Review by Andrew Hamilton

One Way featuring Al Hudson & Alicia Myers - The Best Of One Way (1996)

One Way featuring Al Hudson & Alicia Myers - The Best Of One Way (1996)




Release of this album/CD: 1996, April, 23 [CD MCA Records (USA), Cat.# MCAD-11432, UPC: 008811143220]
℗© 1996 MCA Records, Inc.
Distributed by Uni Distribution Corp.
Printed/Made in U.S.A.

Credits:

Art Direction – Vartan Kurjian
Compiled By – Eric Neff
Design – Mike Fink @ ilevel
Featuring – Al Hudson, Alicia Myers
Mastered By [Digitally Remastered At Mca Music Media Studios, No. Hollywood, Ca] – Erick Labson
Producer – Al Perkins (tracks: 4, 11, 12), Kevin McCord (tracks: 2, 4 to 6, 7, 9, 11, 14), Richard Becker (tracks: 6, 7, 10)
Reissue Producer – Andy McKaie


Tracklist:

01. One Way - Cutie Pie (05:28)
02. One Way - Lady You Are (05:25)
03. Al Hudson And The Partners - You Can Do It (03:33)
04. Alicia Myers - I Want To Thank You (03:49)
05. One Way - Mr. Goove (04:45)
06. One Way feat. Al Hudson - Something In The Past (06:14)
07. One Way feat. Al Hudson - Pop It (Single Edit) (04:07)
08. One Way - Don't Think About It (05:44)
09. Alicia Myers - Appreciation (05:11)
10. One Way - Push (Single Edit) (03:53)
11. Alicia Myers - If You Play Your Cards Right (06:02)
12. One Way - Pull Fancy Dancer / Pull (Part 1) (03:02)
13. One Way - You Better Quit (04:14)
14. Alicia Myers - You Get The Best From Me (Say, Say, Say) (08:02)

Exact Audio Copy V0.99 prebeta 5 from 4. May 2009

EAC extraction logfile from 21. April 2010, 13:02

One Way / The Best Of One Way

Used drive : PIONEER DVD-RW DVR-112D Adapter: 0 ID: 1

Read mode : Secure
Utilize accurate stream : Yes
Defeat audio cache : Yes
Make use of C2 pointers : No

Read offset correction : 48
Overread into Lead-In and Lead-Out : No
Fill up missing offset samples with silence : Yes
Delete leading and trailing silent blocks : No
Null samples used in CRC calculations : Yes
Used interface : Installed external ASPI interface
Gap handling : Appended to previous track

Used output format : User Defined Encoder
Selected bitrate : 128 kBit/s
Quality : High
Add ID3 tag : No
Command line compressor : C:\Programmi\Exact Audio Copy\Flac\flac.exe
Additional command line options : -8 -V -T "artist=%a" -T "title=%t" -T "album=%g" -T "date=%y" -T "tracknumber=%n" -T "genre=%m" %s


TOC of the extracted CD

Track | Start | Length | Start sector | End sector
––––––––––––––––––––––––––––-
1 | 0:00.00 | 5:27.65 | 0 | 24589
2 | 5:27.65 | 5:25.22 | 24590 | 48986
3 | 10:53.12 | 3:33.30 | 48987 | 64991
4 | 14:26.42 | 3:49.00 | 64992 | 82166
5 | 18:15.42 | 4:45.18 | 82167 | 103559
6 | 23:00.60 | 6:14.07 | 103560 | 131616
7 | 29:14.67 | 4:06.60 | 131617 | 150126
8 | 33:21.52 | 5:43.53 | 150127 | 175904
9 | 39:05.30 | 5:11.30 | 175905 | 199259
10 | 44:16.60 | 3:53.07 | 199260 | 216741
11 | 48:09.67 | 6:01.68 | 216742 | 243884
12 | 54:11.60 | 3:02.20 | 243885 | 257554
13 | 57:14.05 | 4:13.62 | 257555 | 276591
14 | 61:27.67 | 8:02.13 | 276592 | 312754


Track 1

Filename C:\One Way - The Best Of One Way\Music\01 - Cutie Pie.wav

Pre-gap length 0:00:02.00

Peak level 100.0 %
Track quality 100.0 %
Test CRC D797293F
Copy CRC D797293F
Accurately ripped (confidence 4) [BF8155AC]
Copy OK

Track 2

Filename C:\One Way - The Best Of One Way\Music\02 - Lady You Are.wav

Pre-gap length 0:00:02.40

Peak level 100.0 %
Track quality 100.0 %
Test CRC 82D8CCF7
Copy CRC 82D8CCF7
Accurately ripped (confidence 4) [5676B3AE]
Copy OK

Track 3

Filename C:\One Way - The Best Of One Way\Music\03 - You Can Do It - Al Hudson & The Partners.wav

Pre-gap length 0:00:02.40

Peak level 100.0 %
Track quality 100.0 %
Test CRC 09D7CC39
Copy CRC 09D7CC39
Accurately ripped (confidence 2) [69D87E57]
Copy OK

Track 4

Filename C:\One Way - The Best Of One Way\Music\04 - I Want To Thank You - Alicia Myers.wav

Pre-gap length 0:00:02.40

Peak level 100.0 %
Track quality 100.0 %
Test CRC B26E9A98
Copy CRC B26E9A98
Accurately ripped (confidence 4) [0F7A797A]
Copy OK

Track 5

Filename C:\One Way - The Best Of One Way\Music\05 - Mr. Groove.wav

Pre-gap length 0:00:02.40

Peak level 96.6 %
Track quality 99.9 %
Test CRC 004FD001
Copy CRC 004FD001
Accurately ripped (confidence 2) [5D8DA962]
Copy OK

Track 6

Filename C:\One Way - The Best Of One Way\Music\06 - Something In The Past.wav

Pre-gap length 0:00:02.38

Peak level 96.6 %
Track quality 100.0 %
Test CRC F823FB85
Copy CRC F823FB85
Accurately ripped (confidence 4) [06B3202B]
Copy OK

Track 7

Filename C:\One Way - The Best Of One Way\Music\07 - Pop It (Single Edit).wav

Pre-gap length 0:00:02.40

Peak level 91.2 %
Track quality 100.0 %
Test CRC 22406291
Copy CRC 22406291
Accurately ripped (confidence 2) [0A762046]
Copy OK

Track 8

Filename C:\One Way - The Best Of One Way\Music\08 - Don't Think About It.wav

Pre-gap length 0:00:02.37

Peak level 94.3 %
Track quality 100.0 %
Test CRC E7194A2C
Copy CRC E7194A2C
Accurately ripped (confidence 2) [1806FBFA]
Copy OK

Track 9

Filename C:\One Way - The Best Of One Way\Music\09 - Appreciation - Alicia Myers.wav

Pre-gap length 0:00:02.40

Peak level 92.0 %
Track quality 100.0 %
Test CRC BDBAD01C
Copy CRC BDBAD01C
Accurately ripped (confidence 4) [C9F20834]
Copy OK

Track 10

Filename C:\One Way - The Best Of One Way\Music\10 - Push (Single Edit).wav

Pre-gap length 0:00:02.38

Peak level 96.4 %
Track quality 99.9 %
Test CRC ED64B037
Copy CRC ED64B037
Accurately ripped (confidence 2) [9A0E3629]
Copy OK

Track 11

Filename C:\One Way - The Best Of One Way\Music\11 - If You Play Your Cards Right - Alicia Myers.wav

Pre-gap length 0:00:02.40

Peak level 97.0 %
Track quality 100.0 %
Test CRC FC8D36C7
Copy CRC FC8D36C7
Accurately ripped (confidence 2) [9111821C]
Copy OK

Track 12

Filename C:\One Way - The Best Of One Way\Music\12 - Pull Fancy Dancer,Pull (Part 1).wav

Pre-gap length 0:00:02.40

Peak level 94.3 %
Track quality 99.9 %
Test CRC C8B9F48B
Copy CRC C8B9F48B
Accurately ripped (confidence 4) [C9AA3629]
Copy OK

Track 13

Filename C:\One Way - The Best Of One Way\Music\13 - You Better Quit.wav

Pre-gap length 0:00:02.38

Peak level 96.6 %
Track quality 100.0 %
Test CRC EAD39ADD
Copy CRC EAD39ADD
Accurately ripped (confidence 2) [34C72A75]
Copy OK

Track 14

Filename C:\One Way - The Best Of One Way\Music\14 - You Get The Best From Me (Say, Say, Say) - Alicia Myers.wav

Pre-gap length 0:00:02.20

Peak level 99.7 %
Track quality 99.9 %
Test CRC FB25F5D9
Copy CRC FB25F5D9
Accurately ripped (confidence 4) [D7BB24B7]
Copy OK


All tracks accurately ripped

No errors occurred

End of status report

––––––––––––––––––––––––––––––––––––––––
Analyzed: One Way / The Best Of One Way
––––––––––––––––––––––––––––––––––––––––

DR Peak RMS Duration Track
––––––––––––––––––––––––––––––––––––––––
DR9 0.00 dB -10.91 dB 5:28 01-Cutie Pie
DR11 0.00 dB -12.16 dB 5:25 02-Lady You Are
DR11 0.00 dB -12.66 dB 3:33 03-You Can Do It - Al Hudson & The Partners
DR10 0.00 dB -10.99 dB 3:49 04-I Want To Thank You - Alicia Myers
DR11 -0.30 dB -12.22 dB 4:45 05-Mr. Groove
DR11 -0.30 dB -13.42 dB 6:14 06-Something In The Past
DR10 -0.80 dB -11.85 dB 4:07 07-Pop It (Single Edit)
DR9 -0.51 dB -10.86 dB 5:44 08-Don't Think About It
DR9 -0.72 dB -11.73 dB 5:11 09-Appreciation - Alicia Myers
DR10 -0.32 dB -12.44 dB 3:53 10-Push (Single Edit)
DR9 -0.26 dB -12.13 dB 6:02 11-If You Play Your Cards Right - Alicia Myers
DR9 -0.50 dB -11.01 dB 3:02 12-Pull Fancy Dancer/Pull (Part 1)
DR10 -0.30 dB -11.51 dB 4:14 13-You Better Quit
DR11 -0.02 dB -12.34 dB 8:02 14-You Get The Best From Me (Say, Say, Say) - Alicia Myers
––––––––––––––––––––––––––––––––––––––––

Number of tracks: 14
Official DR value: DR10

Samplerate: 44100 Hz
Channels: 2
Bits per sample: 16
Bitrate: 951 kbps
Codec: FLAC
================================================================================

Thanks to original releaser

See also:
One Way feat Al Hudson (1980) [2013, Remastered Expanded Edition]

♫~Welcome To My Blog~♫

password: BlondStyle