Subcategories

Orchestral Manoeuvres in the Dark (OMD) - The Best Of OMD (1988)

Posted By: Designol
Orchestral Manoeuvres in the Dark (OMD) - The Best Of OMD (1988)

Orchestral Manoeuvres in the Dark (OMD) - The Best Of OMD (1988)
EAC | FLAC | Image (Cue&Log) ~ 497 Mb | Mp3 (CBR320) ~ 198 Mb | Scans included
New Wave, Synthpop, Post-Punk, Dance-Rock | Label: Virgin | # CDOMD 1 | 01:14:15

Andy McCluskey and Paul Humphreys make up Orchestral Manoeuvres in the Dark, who were responsible for some of the catchiest and brightest synth pop that the '80s had to offer. O.M.D.'s material was a step above other keyboard pop music of the time, thanks to the combination of intelligently crafted hooks and colorful rhythms that bounced and jittered with pristine charm. Their squeaky-clean brilliancy initiated by both their synthesizers and subdued yet attractive vocal styles gave them a more mature sound over bands like Duran Duran and A Flock of Seagulls, who were attracting a younger audience. The Best of O.M.D. is an excellent compilation of their polished music, starting out with less provocative material like the basic electronic wash of "Electricity" and the bare but ebullient fervor of "Enola Gay." As this set moves along, so does the craftiness of their work, which is evident on tighter sounding songs like "Tesla Girls" and "Locomotion," where the intricacy of their formula begins to take a more resounding shape. O.M.D.'s best work came from 1985's Crush album, which harbored the midnight airiness found in "So in Love" as well as the adolescent innocence that streamed its way through "Secret," which are two of the best tracks on this set. Even though "If You Leave" was the highlight of Pretty in Pink's soundtrack, its adult feel and smooth transition from stanza to chorus makes it their most memorable song. With only four singles reaching the Top 40 in the '80s, all included here, the 18 tracks that make up this compilation prove that O.M.D.'s music was far more consistent and illuminating than the charts represent.

Review by Mike DeGagne, Allmusic.com

Orchestral Manoeuvres in the Dark (OMD) - The Best Of OMD (1988)



Tracklist:

01. Electricity (03:31)
02. Messages (04:45)
03. Enola Gay (03:32)
04. Souvenir (03:38)
05. Joan of Arc (03:48)
06. Maid Of Orleans (04:12)
07. Telegraph (03:43)
08. Tesla Girls (03:33)
09. Locomotion (03:53)
10. Talking Loud And Clear (03:55)
11. So In Love (03:30)
12. Secret (03:57)
13. If You Leave (04:30)
14. Forever Live And Die (03:35)
15. Dreaming (03:58)
16. Genetic Engineering (03:35)
17. We Love You (12' version) (06:14)
18. La Femme Accident (12' version) (06:18)


Exact Audio Copy V0.99 prebeta 5 from 4. May 2009

Отчёт EAC об извлечении, выполненном 10. сентября 2011, 23:45

Orchestral Manoeuvres in the Dark / The Best Of OMD

Дисковод: Optiarc DVD RW AD-7201S Adapter: 2 ID: 1

Режим чтения : Достоверность
Использование точного потока : Да
Отключение кэша аудио : Да
Использование указателей C2 : Нет

Коррекция смещения при чтении : 48
Способность читать области Lead-in и Lead-out : Нет
Заполнение пропущенных сэмплов тишиной : Да
Удаление блоков с тишиной в начале и конце : Нет
При вычислениях CRC использовались нулевые сэмплы : Да
Интерфейс : Встроенный Win32-интерфейс для Win NT/2000

Выходной формат : Внутренние WAV-операции
Формат сэмплов : 44.100 Гц; 16 бит; стерео


TOC извлечённого CD

Трек | Старт | Длительность | Начальный сектор | Конечный сектор
––––––––––––––––––––––––––––––––––-
1 | 0:00.50 | 3:31.40 | 50 | 15914
2 | 3:32.15 | 4:45.52 | 15915 | 37341
3 | 8:17.67 | 3:32.28 | 37342 | 53269
4 | 11:50.20 | 3:38.35 | 53270 | 69654
5 | 15:28.55 | 3:48.12 | 69655 | 86766
6 | 19:16.67 | 4:12.05 | 86767 | 105671
7 | 23:28.72 | 3:43.60 | 105672 | 122456
8 | 27:12.57 | 3:33.68 | 122457 | 138499
9 | 30:46.50 | 3:53.62 | 138500 | 156036
10 | 34:40.37 | 3:55.13 | 156037 | 173674
11 | 38:35.50 | 3:29.70 | 173675 | 189419
12 | 42:05.45 | 3:57.05 | 189420 | 207199
13 | 46:02.50 | 4:30.67 | 207200 | 227516
14 | 50:33.42 | 3:34.70 | 227517 | 243636
15 | 54:08.37 | 3:58.15 | 243637 | 261501
16 | 58:06.52 | 3:35.60 | 261502 | 277686
17 | 61:42.37 | 6:14.63 | 277687 | 305799
18 | 67:57.25 | 6:18.25 | 305800 | 334174


Характеристики диапазона извлечения и сообщения об ошибках

Выбранный диапазон

Имя файла G:\Раздачи Rodexx\Orchestral Manoeuvres In The Dark - The Best Of OMD\Orchestral Manoeuvres in the Dark - The Best Of OMD.wav

Пиковый уровень 100.0 %
Качество диапазона 99.9 %
CRC теста F131BDAD
CRC копии F131BDAD
Копирование… OK

Ошибок не произошло


AccurateRip: сводка

Трек 1 точное извлечение (доверие 31) [67304EF6]
Трек 2 точное извлечение (доверие 33) [C2C664EB]
Трек 3 точное извлечение (доверие 34) [21B59EDC]
Трек 4 точное извлечение (доверие 32) [8409E2BB]
Трек 5 точное извлечение (доверие 32) [7942F2A5]
Трек 6 точное извлечение (доверие 31) [E3CB3B85]
Трек 7 точное извлечение (доверие 31) [8129FC46]
Трек 8 точное извлечение (доверие 34) [96F2DC7D]
Трек 9 точное извлечение (доверие 32) [439716BC]
Трек 10 точное извлечение (доверие 31) [D25A2190]
Трек 11 точное извлечение (доверие 32) [4069F0EB]
Трек 12 точное извлечение (доверие 31) [DAE390CB]
Трек 13 точное извлечение (доверие 28) [97283A81]
Трек 14 точное извлечение (доверие 30) [7083B3DC]
Трек 15 точное извлечение (доверие 31) [994601FE]
Трек 16 точное извлечение (доверие 32) [FB4C2D25]
Трек 17 точное извлечение (доверие 30) [0AE6EBB4]
Трек 18 точное извлечение (доверие 27) [C25A3127]

Все треки извлечены точно

Конец отчёта

[CUETools log; Date: 10.12.2017 1:03:05; Version: 2.1.4]
Pregap length 00:00:50.
[CTDB TOCID: n1lAZ0_Bg1s921OB9YWKQCCdHOw-] found.
Track | CTDB Status
1 | ( 45/648) Accurately ripped, or (102/648) differs in 1470 samples @00:35:52-00:35:53
2 | (157/648) Accurately ripped
3 | (630/648) Accurately ripped
4 | (629/648) Accurately ripped
5 | (628/648) Accurately ripped
6 | (628/648) Accurately ripped
7 | (627/648) Accurately ripped
8 | (631/648) Accurately ripped
9 | (629/648) Accurately ripped
10 | (628/648) Accurately ripped
11 | (627/648) Accurately ripped
12 | (629/648) Accurately ripped
13 | (626/648) Accurately ripped
14 | (626/648) Accurately ripped
15 | (628/648) Accurately ripped
16 | (621/648) Accurately ripped
17 | (612/648) Accurately ripped
18 | (609/648) Accurately ripped
[AccurateRip ID: 002ddf46-0265d23b-f7116712] found.
Track [ CRC | V2 ] Status
01 [afdba48a|81427dec] (00+04/75) Accurately ripped
02 [6aac087e|4dfc5b30] (00+04/76) Accurately ripped
03 [7b93d755|84524d85] (00+04/78) Accurately ripped
04 [44b32a31|3020b24a] (00+04/74) Accurately ripped
05 [dfa19847|e18406e5] (00+04/75) Accurately ripped
06 [14a983d6|87b535c1] (00+04/73) Accurately ripped
07 [9513e5dc|b56b2300] (00+04/74) Accurately ripped
08 [323c5668|22b529c4] (00+04/77) Accurately ripped
09 [9275d970|5ff00f1c] (00+04/76) Accurately ripped
10 [23db7304|34af4e88] (00+04/72) Accurately ripped
11 [fb3d1872|e9b00b26] (00+04/74) Accurately ripped
12 [83f2d178|af5f3169] (00+04/72) Accurately ripped
13 [3892b403|39b6d4b3] (00+04/68) Accurately ripped
14 [df4a274b|4486fe4c] (00+04/68) Accurately ripped
15 [f3c230e1|71b9a5c6] (00+04/72) Accurately ripped
16 [f9934fca|e6e391cf] (00+04/72) Accurately ripped
17 [c52dfc1f|b3cc79ad] (00+04/68) Accurately ripped
18 [3c20c52f|df89d8ff] (00+04/67) Accurately ripped
Offsetted by -1413:
01 [67304ef6] (33/75) Accurately ripped
02 [c2c664eb] (35/76) Accurately ripped
03 [21b59edc] (36/78) Accurately ripped
04 [8409e2bb] (34/74) Accurately ripped
05 [7942f2a5] (34/75) Accurately ripped
06 [e3cb3b85] (32/73) Accurately ripped
07 [8129fc46] (33/74) Accurately ripped
08 [96f2dc7d] (36/77) Accurately ripped
09 [439716bc] (34/76) Accurately ripped
10 [d25a2190] (33/72) Accurately ripped
11 [4069f0eb] (34/74) Accurately ripped
12 [dae390cb] (33/72) Accurately ripped
13 [97283a81] (30/68) Accurately ripped
14 [7083b3dc] (32/68) Accurately ripped
15 [994601fe] (33/72) Accurately ripped
16 [fb4c2d25] (34/72) Accurately ripped
17 [0ae6ebb4] (32/68) Accurately ripped
18 [c25a3127] (29/67) Accurately ripped

Track Peak [ CRC32 ] [W/O NULL] [ LOG ]
– 100,0 [F131BDAD] [6BC41C00] CRC32
01 100,0 [EC52012C] [9D4E1697]
02 87,1 [11BFF4EB] [B15BF018]
03 68,6 [5CE962CB] [AE131DB3]
04 76,6 [883F4294] [D5DC5501]
05 68,6 [2AD32EA7] [422E7110]
06 73,4 [0B9855A5] [B94E7C44]
07 80,9 [32D43AA9] [EEC87E47]
08 79,9 [372C1B29] [CBFEF72A]
09 100,0 [EFB4B361] [A2E68B6E]
10 80,9 [77B1B577] [F42BE6CB]
11 100,0 [CE7F9955] [BA64877E]
12 98,6 [FD84515C] [68E45FF5]
13 74,8 [D09ECD40] [54B30974]
14 98,9 [96DE98B5] [CBB16921]
15 100,0 [8822CF1E] [4222FCF4]
16 79,4 [574550EF] [3090B29C]
17 98,9 [4EED65FC] [90651920]
18 74,8 [6B9CC7FF] [02697B46]

foobar2000 1.2 / Dynamic Range Meter 1.1.1
log date: 2014-03-07 16:20:44

––––––––––––––––––––––––––––––––––––––––
Analyzed: Orchestral Manoeuvres in the Dark / The Best Of OMD
––––––––––––––––––––––––––––––––––––––––

DR Peak RMS Duration Track
––––––––––––––––––––––––––––––––––––––––
DR13 0.00 dB -14.95 dB 3:32 01-Electricity
DR13 -1.20 dB -16.47 dB 4:46 02-Messages
DR11 -3.27 dB -16.16 dB 3:32 03-Enola Gay
DR12 -2.31 dB -17.09 dB 3:38 04-Souvenir
DR12 -3.26 dB -19.00 dB 3:48 05-Joan of Arc
DR13 -2.68 dB -18.30 dB 4:12 06-Maid Of Orleans
DR12 -1.83 dB -15.80 dB 3:44 07-Telegraph
DR12 -1.94 dB -15.93 dB 3:34 08-Tesla Girls
DR15 0.00 dB -16.40 dB 3:54 09-Locomotion
DR13 -1.84 dB -17.67 dB 3:55 10-Talking Loud And Clear
DR15 0.00 dB -17.25 dB 3:30 11-So In Love
DR15 -0.12 dB -17.41 dB 3:57 12-Secret
DR12 -2.52 dB -16.38 dB 4:31 13-If You Leave
DR14 -0.09 dB -16.85 dB 3:35 14-Forever Live And Die
DR15 0.00 dB -15.93 dB 3:58 15-Dreaming
DR11 -2.00 dB -15.50 dB 3:36 16-Genetic Engineering
DR14 -0.09 dB -16.79 dB 6:15 17-We Love You (12' version)
DR12 -2.52 dB -16.43 dB 6:18 18-La Femme Accident (12' version)
––––––––––––––––––––––––––––––––––––––––

Number of tracks: 18
Official DR value: DR13

Samplerate: 44100 Hz
Channels: 2
Bits per sample: 16
Bitrate: 882 kbps
Codec: FLAC
================================================================================

Orchestral Manoeuvres in the Dark (OMD) - The Best Of OMD (1988)

Orchestral Manoeuvres in the Dark (OMD) - The Best Of OMD (1988)

All thanks to original releaser - Rodexx

More interesting music in My Blog