Subcategories
Tags
Language
Tags

Oscar Peterson Trio - West Side Story + Play Porgy & Bess (2012) {2LP on 1CD, Remastered}

Posted By: popsakov
Oscar Peterson Trio - West Side Story + Play Porgy & Bess (2012) {2LP on 1CD, Remastered}

Oscar Peterson Trio - West Side Story + Play Porgy & Bess (2012) {2LP on 1CD, Remastered}
EAC Rip | FLAC (Tracks) + Cue + m3u + Log ~ 455 Mb | MP3 CBR320 ~ 197 Mb
Full Scans | 01:15:24 | RAR 5% Recovery
Jazz | Verve / Universal Music Classics & Jazz #0600753401552

Two classic albums on one CD, 2012 new digital remaster with full original album art in booklet. Oscar Peterson's 1962 album, Oscar Peterson Plays: West Side Story, features the pianist and his trio with bassist Ray Brown and drummer Ed Thigpen, reinterpreting compositions from the classic 1961 film version of the Broadway musical. This is a highly engaging album that showcases Peterson's trio at their finest, with some truly inventive takes on such songs as "Somewhere," "Tonight," and "Maria."

Oscar Peterson's 1959 album, Play Porgy & Bess, features the pianist and his trio (with bassist Ray Brown and drummer Ed Thigpen) explore ten of the stronger themes from George Gershwin's Porgy & Bess. It is true that Peterson's version of "Summertime" will not make one forget the classic rendition by Miles Davis with Gil Evans but, as is true with all of these performances, Peterson makes the melodies sound like his own. "It Ain't Necessarily So" and "I Got Plenty O' Nuttin"' are among the more memorable selections.

~ All Music

***************

Oscar Peterson Trio - West Side Story + Play Porgy & Bess (2012) {2LP on 1CD, Remastered}

Oscar Peterson Trio - West Side Story + Play Porgy & Bess (2012) {2LP on 1CD, Remastered}

Track List:

01. Something's Coming [0:03:54.33]
02. Somewhere [0:05:35.07]
03. Jet Song [0:07:48.07]
04. Tonight [0:04:35.70]
05. Maria [0:04:54.26]
06. I Feel Pretty [0:04:28.27]
07. Reprise [0:04:00.01]
08. I Got Plenty O' Nuttin' [0:06:22.70]
09. I Wants To Stay Here [0:06:21.14]
10. Summertime [0:03:49.73]
11. Oh Dey's So Fresh And Fine (Strawberry Woman) [0:00:54.28]
12. Oh Lawd, I'm On My Way [0:02:35.15]
13. It Ain't Necessarily So [0:04:00.62]
14. There's A Boat Dat's Leavin' Soon For New York [0:07:12.21]
15. Bess, Oh Where's My Bess [0:04:55.29]
16. Here Come De Honey Man [0:01:09.12]
17. Bess, You Is My Woman Now [0:03:29.58]

Personnel:
Oscar Peterson - piano
Ray Brown - bass
Ed Thigpen - drums

Exact Audio Copy V1.0 beta 3 from 29. August 2011

EAC extraction logfile from 20. April 2013, 22:41

The Oscar Peterson Trio / West Side Story and Plays Porgy and Bess

Used drive : ATAPI iHAS124 D Adapter: 0 ID: 2

Read mode : Secure
Utilize accurate stream : Yes
Defeat audio cache : Yes
Make use of C2 pointers : Yes

Read offset correction : 6
Overread into Lead-In and Lead-Out : No
Fill up missing offset samples with silence : Yes
Delete leading and trailing silent blocks : No
Null samples used in CRC calculations : Yes
Used interface : Installed external ASPI interface
Gap handling : Appended to previous track

Used output format : User Defined Encoder
Selected bitrate : 896 kBit/s
Quality : High
Add ID3 tag : No
Command line compressor : C:\Program Files (x86)\Exact Audio Copy\FLAC\FLAC.EXE
Additional command line options : -6 -V -T "ARTIST=%artist%" -T "TITLE=%title%" -T "ALBUM=%albumtitle%" -T "DATE=%year%" -T "TRACKNUMBER=%tracknr%" -T "GENRE=%genre%" -T "COMMENT=%comment%" -T "BAND=%albuminterpret%" -T "ALBUMARTIST=%albuminterpret%" -T "COMPOSER=%composer%" %haslyrics%–tag-from-file=LYRICS="%lyricsfile%"%haslyrics% -T "DISCNUMBER=%cdnumber%" -T "TOTALDISCS=%totalcds%" -T "TOTALTRACKS=%numtracks%" %hascover%–picture="%coverfile%"%hascover% %source% -o %dest%


TOC of the extracted CD

Track | Start | Length | Start sector | End sector
––––––––––––––––––––––––––––-
1 | 0:00.00 | 3:54.33 | 0 | 17582
2 | 3:54.33 | 5:35.07 | 17583 | 42714
3 | 9:29.40 | 7:48.07 | 42715 | 77821
4 | 17:17.47 | 4:35.70 | 77822 | 98516
5 | 21:53.42 | 4:54.26 | 98517 | 120592
6 | 26:47.68 | 4:28.27 | 120593 | 140719
7 | 31:16.20 | 4:00.01 | 140720 | 158720
8 | 35:16.21 | 6:22.70 | 158721 | 187440
9 | 41:39.16 | 6:21.14 | 187441 | 216029
10 | 48:00.30 | 3:49.73 | 216030 | 233277
11 | 51:50.28 | 0:54.28 | 233278 | 237355
12 | 52:44.56 | 2:35.15 | 237356 | 248995
13 | 55:19.71 | 4:00.62 | 248996 | 267057
14 | 59:20.58 | 7:12.21 | 267058 | 299478
15 | 66:33.04 | 4:55.29 | 299479 | 321632
16 | 71:28.33 | 1:09.12 | 321633 | 326819
17 | 72:37.45 | 3:29.58 | 326820 | 342552


Track 1

Filename C:\mm\Oscar Peterson\2012 - West Side Story + Play Porgy & Bess\01 - Something's Coming.wav

Pre-gap length 0:00:02.00

Peak level 82.6 %
Extraction speed 8.3 X
Track quality 100.0 %
Test CRC E0118CF2
Copy CRC E0118CF2
Accurately ripped (confidence 1) [4F2AFAAD] (AR v2)
Copy OK

Track 2

Filename C:\mm\Oscar Peterson\2012 - West Side Story + Play Porgy & Bess\02 - Somewhere.wav

Pre-gap length 0:00:02.34

Peak level 77.4 %
Extraction speed 9.7 X
Track quality 100.0 %
Test CRC 22A03B8D
Copy CRC 22A03B8D
Accurately ripped (confidence 1) [1BD1CD00] (AR v2)
Copy OK

Track 3

Filename C:\mm\Oscar Peterson\2012 - West Side Story + Play Porgy & Bess\03 - Jet Song.wav

Pre-gap length 0:00:02.35

Peak level 84.6 %
Extraction speed 9.9 X
Track quality 99.9 %
Test CRC 60D2172A
Copy CRC 60D2172A
Accurately ripped (confidence 1) [EE4BB8C8] (AR v2)
Copy OK

Track 4

Filename C:\mm\Oscar Peterson\2012 - West Side Story + Play Porgy & Bess\04 - Tonight.wav

Pre-gap length 0:00:02.65

Peak level 80.3 %
Extraction speed 9.3 X
Track quality 99.9 %
Test CRC 212FF934
Copy CRC 212FF934
Accurately ripped (confidence 1) [9F15DB5A] (AR v2)
Copy OK

Track 5

Filename C:\mm\Oscar Peterson\2012 - West Side Story + Play Porgy & Bess\05 - Maria.wav

Pre-gap length 0:00:02.10

Peak level 78.6 %
Extraction speed 12.3 X
Track quality 100.0 %
Test CRC EB502A75
Copy CRC EB502A75
Accurately ripped (confidence 1) [D84583B6] (AR v2)
Copy OK

Track 6

Filename C:\mm\Oscar Peterson\2012 - West Side Story + Play Porgy & Bess\06 - I Feel Pretty.wav

Pre-gap length 0:00:02.45

Peak level 81.7 %
Extraction speed 12.7 X
Track quality 100.0 %
Test CRC F2F55BDB
Copy CRC F2F55BDB
Accurately ripped (confidence 1) [669093BC] (AR v2)
Copy OK

Track 7

Filename C:\mm\Oscar Peterson\2012 - West Side Story + Play Porgy & Bess\07 - Reprise.wav

Pre-gap length 0:00:02.08

Peak level 80.1 %
Extraction speed 13.0 X
Track quality 100.0 %
Test CRC 0327B77D
Copy CRC 0327B77D
Accurately ripped (confidence 1) [99BB81EB] (AR v2)
Copy OK

Track 8

Filename C:\mm\Oscar Peterson\2012 - West Side Story + Play Porgy & Bess\08 - I Got Plenty O' Nuttin'.wav

Pre-gap length 0:00:04.60

Peak level 98.8 %
Extraction speed 14.6 X
Track quality 100.0 %
Test CRC 764B2C26
Copy CRC 764B2C26
Accurately ripped (confidence 1) [07752840] (AR v2)
Copy OK

Track 9

Filename C:\mm\Oscar Peterson\2012 - West Side Story + Play Porgy & Bess\09 - I Wants To Stay Here.wav

Pre-gap length 0:00:02.46

Peak level 82.8 %
Extraction speed 15.4 X
Track quality 100.0 %
Test CRC 7AB5AA0D
Copy CRC 7AB5AA0D
Accurately ripped (confidence 1) [54959CE3] (AR v2)
Copy OK

Track 10

Filename C:\mm\Oscar Peterson\2012 - West Side Story + Play Porgy & Bess\10 - Summertime.wav

Pre-gap length 0:00:02.64

Peak level 98.8 %
Extraction speed 14.6 X
Track quality 100.0 %
Test CRC 4EF0A33F
Copy CRC 4EF0A33F
Accurately ripped (confidence 1) [EDBA9C3C] (AR v2)
Copy OK

Track 11

Filename C:\mm\Oscar Peterson\2012 - West Side Story + Play Porgy & Bess\11 - Oh Dey's So Fresh And Fine (Strawberry Woman).wav

Pre-gap length 0:00:03.00

Peak level 90.5 %
Extraction speed 9.1 X
Track quality 100.0 %
Test CRC 54D98FE5
Copy CRC 54D98FE5
Accurately ripped (confidence 1) [A2974D91] (AR v2)
Copy OK

Track 12

Filename C:\mm\Oscar Peterson\2012 - West Side Story + Play Porgy & Bess\12 - Oh Lawd, I'm On My Way.wav

Pre-gap length 0:00:02.61

Peak level 98.8 %
Extraction speed 10.1 X
Track quality 99.8 %
Test CRC 9D09E105
Copy CRC 9D09E105
Accurately ripped (confidence 1) [DEE774CE] (AR v2)
Copy OK

Track 13

Filename C:\mm\Oscar Peterson\2012 - West Side Story + Play Porgy & Bess\13 - It Ain't Necessarily So.wav

Pre-gap length 0:00:02.51

Peak level 98.8 %
Extraction speed 15.6 X
Track quality 100.0 %
Test CRC 3A3549A7
Copy CRC 3A3549A7
Accurately ripped (confidence 1) [367DD903] (AR v2)
Copy OK

Track 14

Filename C:\mm\Oscar Peterson\2012 - West Side Story + Play Porgy & Bess\14 - There's A Boat Dat's Leavin' Soon For New York.wav

Pre-gap length 0:00:02.60

Peak level 98.8 %
Extraction speed 17.6 X
Track quality 100.0 %
Test CRC 8171DCF0
Copy CRC 8171DCF0
Accurately ripped (confidence 1) [00B3FAFE] (AR v2)
Copy OK

Track 15

Filename C:\mm\Oscar Peterson\2012 - West Side Story + Play Porgy & Bess\15 - Bess, Oh Where's My Bess.wav

Pre-gap length 0:00:02.55

Peak level 81.6 %
Extraction speed 14.0 X
Track quality 99.9 %
Test CRC 79D625DC
Copy CRC 79D625DC
Accurately ripped (confidence 1) [02F06391] (AR v2)
Copy OK

Track 16

Filename C:\mm\Oscar Peterson\2012 - West Side Story + Play Porgy & Bess\16 - Here Come De Honey Man.wav

Pre-gap length 0:00:02.23

Peak level 57.6 %
Extraction speed 7.1 X
Track quality 99.6 %
Test CRC 439D677E
Copy CRC 439D677E
Accurately ripped (confidence 1) [84A30704] (AR v2)
Copy OK

Track 17

Filename C:\mm\Oscar Peterson\2012 - West Side Story + Play Porgy & Bess\17 - Bess, You Is My Woman Now.wav

Pre-gap length 0:00:02.41

Peak level 98.8 %
Extraction speed 16.6 X
Track quality 100.0 %
Test CRC 42C1DBC7
Copy CRC 42C1DBC7
Accurately ripped (confidence 1) [37F37922] (AR v2)
Copy OK


All tracks accurately ripped

No errors occurred

End of status report

–– CUETools DB Plugin V2.1.3

[CTDB TOCID: oSK0Ik6bFu8eJz.6PuueOTexgEw-] found, Submit result: oSK0Ik6bFu8eJz.6PuueOTexgEw- has been confirmed
[08f5cca9] (3/3) Accurately ripped

[CUETools log; Date: 01.09.2017 15:31:11; Version: 2.1.5]
[CTDB TOCID: oSK0Ik6bFu8eJz.6PuueOTexgEw-] found.
Track | CTDB Status
1 | (13/13) Accurately ripped
2 | (13/13) Accurately ripped
3 | (13/13) Accurately ripped
4 | (13/13) Accurately ripped
5 | (13/13) Accurately ripped
6 | (13/13) Accurately ripped
7 | (13/13) Accurately ripped
8 | (13/13) Accurately ripped
9 | (13/13) Accurately ripped
10 | (13/13) Accurately ripped
11 | (13/13) Accurately ripped
12 | (13/13) Accurately ripped
13 | (13/13) Accurately ripped
14 | (13/13) Accurately ripped
15 | (13/13) Accurately ripped
16 | (13/13) Accurately ripped
17 | (13/13) Accurately ripped
[AccurateRip ID: 0032ec63-0279e5cd-ef11d711] found.
Track [ CRC | V2 ] Status
01 [62b0663b|4f2afaad] (00+13/13) Accurately ripped
02 [d43c2fe1|1bd1cd00] (00+13/13) Accurately ripped
03 [1dd3ab4f|ee4bb8c8] (00+13/13) Accurately ripped
04 [aad9a0a4|9f15db5a] (00+13/13) Accurately ripped
05 [326c0578|d84583b6] (00+13/13) Accurately ripped
06 [819d0995|669093bc] (00+13/13) Accurately ripped
07 [866d238e|99bb81eb] (00+13/13) Accurately ripped
08 [cb5452fa|07752840] (00+13/13) Accurately ripped
09 [a70fe865|54959ce3] (00+13/13) Accurately ripped
10 [77a03e94|edba9c3c] (00+13/13) Accurately ripped
11 [e4ee24f1|a2974d91] (00+13/13) Accurately ripped
12 [d2bf070d|dee774ce] (00+13/13) Accurately ripped
13 [d73d55d6|367dd903] (00+13/13) Accurately ripped
14 [923eca68|00b3fafe] (00+13/13) Accurately ripped
15 [a0414f5b|02f06391] (00+13/13) Accurately ripped
16 [0a7babd6|84a30704] (00+13/13) Accurately ripped
17 [04208925|37f37922] (00+13/13) Accurately ripped

Track Peak [ CRC32 ] [W/O NULL] [ LOG ]
– 98,8 [EA220ECD] [673EAF0A]
01 82,6 [E0118CF2] [68D0D427] CRC32
02 77,4 [22A03B8D] [E8F8446C] CRC32
03 84,6 [60D2172A] [DCBEA458] CRC32
04 80,3 [212FF934] [5B1DF7E4] CRC32
05 78,6 [EB502A75] [82957F56] CRC32
06 81,7 [F2F55BDB] [CAA6C8A8] CRC32
07 80,1 [0327B77D] [273B1A01] CRC32
08 98,8 [764B2C26] [605A8BD1] CRC32
09 82,8 [7AB5AA0D] [03B00A20] CRC32
10 98,8 [4EF0A33F] [32F40DCD] CRC32
11 90,5 [54D98FE5] [661C6AFC] CRC32
12 98,8 [9D09E105] [407F79BE] CRC32
13 98,8 [3A3549A7] [2892FD71] CRC32
14 98,8 [8171DCF0] [EFC4E644] CRC32
15 81,6 [79D625DC] [1B9A9CE4] CRC32
16 57,6 [439D677E] [10C4BFAC] CRC32
17 98,8 [42C1DBC7] [4D85647F] CRC32

Oscar Peterson Trio - West Side Story + Play Porgy & Bess (2012) {2LP on 1CD, Remastered}


All thanks go to sergych

>>> Oscar Peterson in my Blog <<<

DOWNLOAD: